<?xml version="1.0" standalone="no"?>
<!DOCTYPE svg PUBLIC "-//W3C//DTD SVG 1.1//EN" "http://www.w3.org/Graphics/SVG/1.1/DTD/svg11.dtd" >
<svg xmlns="http://www.w3.org/2000/svg">
<metadata></metadata>
<defs>
<font id="pf_din_text_comp_prolight" horiz-adv-x="1818" >
<font-face units-per-em="1000" ascent="750" descent="-250" />
<missing-glyph horiz-adv-x="184" />
<glyph unicode="fj" horiz-adv-x="370" d="M125 443v-443h-62v443h-52v48h52v109q0 61 35.5 95t94.5 34q37 0 68 -10.5t54 -34.5l-36 -43q-17 17 -40 23.5t-43 6.5q-38 0 -54.5 -19t-16.5 -48v-113h194v-573q0 -52 -24 -85t-84 -33h-21v57h11q37 0 47 17.5t10 49.5v519h-133z" />
<glyph unicode="ffj" horiz-adv-x="562" d="M193 727q25 0 48.5 -5t43.5 -18q18 20 43.5 29.5t57.5 9.5q38 0 68.5 -10t53.5 -35l-37 -43q-19 17 -41 23.5t-41 6.5q-36 0 -53.5 -19t-17.5 -48v-126h193v-574q0 -52 -24 -85t-84 -33h-21v57h10q37 0 47.5 19.5t10.5 60.5v506h-132v-443h-62v443h-131v-443h-62v443h-52 v49h52v109q0 59 37 92.5t93 33.5zM256 492v127q0 8 0.5 16.5t4.5 17.5q-17 9 -35 12.5t-30 3.5q-37 0 -54 -20t-17 -49v-108h131z" />
<glyph unicode="ff" horiz-adv-x="413" d="M194 728q22 0 43 -4t41 -15q14 19 36 27.5t49 8.5h35v-57h-25q-31 0 -44 -17t-13 -43v-137h80v-48h-80v-443h-61v443h-129v-443h-63v443h-52v48h52v113q0 30 10 53t28 39t42 24t51 8zM255 491v128q0 7 0.5 16.5t2.5 20.5q-17 9 -33.5 11.5t-27.5 2.5q-38 0 -54.5 -19 t-16.5 -48v-112h129z" />
<glyph unicode="fi" horiz-adv-x="370" d="M258 0v443h-132v-443h-63v443h-52v48h52v114q0 60 37 92.5t93 32.5q77 0 122 -46l-36 -43q-17 18 -40 24t-43 6q-38 0 -54 -19t-16 -48v-113h193v-491h-61z" />
<glyph unicode="fl" horiz-adv-x="399" d="M258 669q-21 5 -36 6.5t-27 1.5q-39 0 -54 -21.5t-15 -59.5v-105h84v-48h-84v-443h-63v443h-52v48h52v112q0 63 34.5 98.5t94.5 35.5q18 0 49.5 -2.5t78.5 -15.5v-596q0 -36 10 -55t44 -19h12v-56h-15q-28 0 -49 5.5t-35.5 19t-21.5 36t-7 57.5v558z" />
<glyph unicode="ffi" horiz-adv-x="562" d="M194 728q24 0 47.5 -5.5t44.5 -18.5q36 40 100 40q41 0 70.5 -10.5t53.5 -35.5l-38 -43q-17 17 -40 23.5t-43 6.5q-36 0 -53.5 -19t-17.5 -48v-126h193v-492h-61v443h-132v-443h-62v443h-130v-443h-63v443h-52v49h52v109q0 61 37 94t94 33zM256 492v127q0 8 1 15.5 t3 15.5q-17 11 -34.5 15t-28.5 4q-39 0 -55 -20t-16 -49v-108h130z" />
<glyph unicode="ffl" horiz-adv-x="591" d="M194 726q20 0 46 -5t48 -18q17 20 41.5 29.5t54.5 9.5q18 0 50.5 -3t77.5 -16v-600q0 -36 10.5 -55t44.5 -19h12v-56h-16q-28 0 -49 5.5t-35.5 19t-21.5 36t-7 57.5v564q-21 5 -36 7t-27 2q-38 0 -54 -22.5t-16 -60.5v-110h87v-48h-87v-443h-61v443h-130v-443h-63v443 h-52v48h52v110q0 61 38 93t93 32zM256 608q0 11 1 21.5t4 20.5q-18 11 -35.5 14t-28.5 3q-38 0 -54.5 -19t-16.5 -48v-109h130v117z" />
<glyph unicode="ft" horiz-adv-x="414" d="M319 491h69v-48h-69v-318q0 -37 15.5 -52.5t45.5 -15.5h10v-58h-23q-57 0 -83 32.5t-26 77.5v334h-132v-443h-63v443h-52v48h52v123q0 58 30.5 85t78.5 27h36v-57h-26q-30 0 -43 -17t-13 -43v-118h132v134h61v-134z" />
<glyph unicode=" "  horiz-adv-x="184" />
<glyph unicode="&#x09;" horiz-adv-x="184" />
<glyph unicode="&#xa0;" horiz-adv-x="184" />
<glyph unicode="!" horiz-adv-x="214" d="M81 168l-6 528h63l-6 -528h-51zM74 0v64h65v-64h-65z" />
<glyph unicode="&#x22;" horiz-adv-x="220" d="M135 514v182h47v-182h-47zM38 514v182h49v-182h-49z" />
<glyph unicode="#" horiz-adv-x="367" d="M208 224h-101l-41 -224h-43l42 224h-60v41h68l31 172h-58v42h66l43 222h43l-43 -222h101l42 222h43l-42 -222h60v-42h-68l-32 -172h58v-41h-66l-42 -224h-43zM115 265h101l32 172h-101z" />
<glyph unicode="$" horiz-adv-x="367" d="M341 186q0 -41 -7.5 -75.5t-24 -59.5t-43.5 -39.5t-67 -17.5v-93h-33v93q-38 2 -65.5 14.5t-45 32.5t-26 47t-8.5 59l61 13q0 -20 4.5 -38.5t14 -33t25.5 -24t40 -12.5v286q-46 21 -73.5 41.5t-42.5 42.5t-19.5 46.5t-4.5 54.5q0 74 34 122.5t106 55.5v84h33v-84 q41 -2 68 -16t43.5 -35.5t23.5 -47t7 -49.5l-61 -15q0 43 -18.5 71.5t-62.5 33.5v-253q1 0 5 -1.5t5 -2.5q45 -18 71 -37.5t39.5 -43t17.5 -52.5t4 -67zM279 185q0 30 -2.5 50t-10.5 35.5t-24 27.5t-43 25v-271q27 3 43 15t24 30t10.5 40.5t2.5 47.5zM87 524q0 -20 3 -36 t11 -29.5t23.5 -26.5t41.5 -26v236q-25 -3 -40.5 -15t-24 -28.5t-11.5 -36.5t-3 -38z" />
<glyph unicode="%" horiz-adv-x="580" d="M538 81q0 -40 -27.5 -62.5t-64.5 -22.5q-42 0 -67.5 22.5t-25.5 62.5v251q0 40 27 63.5t66 23.5q37 0 64.5 -22t27.5 -62v-254zM487 333q0 16 -10.5 27.5t-30.5 11.5q-23 0 -33 -12.5t-10 -28.5v-248q0 -17 11 -27.5t32 -10.5q20 0 30.5 12t10.5 29v247zM228 360 q0 -40 -27.5 -62.5t-64.5 -22.5q-42 0 -67.5 22.5t-25.5 62.5v251q0 40 27 63.5t66 23.5q37 0 64.5 -22t27.5 -62v-254zM177 612q0 16 -10.5 27.5t-30.5 11.5q-23 0 -33 -12.5t-10 -28.5v-248q0 -17 11 -27.5t32 -10.5q20 0 30.5 12t10.5 29v247zM152 -17h-42l314 731h42z " />
<glyph unicode="&#x26;" horiz-adv-x="458" d="M212 701q49 0 80 -15.5t49 -50.5l-55 -29q-11 21 -29.5 30t-42.5 9q-18 0 -31.5 -8t-21.5 -21t-12 -29t-4 -31q0 -53 41 -128l147 -254q11 28 16.5 57t7.5 58h57q-2 -40 -13 -87t-30 -86l68 -116h-72l-37 63q-36 -44 -72.5 -56.5t-73.5 -12.5q-29 0 -55 11.5t-45.5 33.5 t-31 54t-11.5 73q0 61 27.5 111t78.5 98q-5 11 -13 23.5t-13 22.5q-17 31 -27 67t-10 69q0 30 9 56t25.5 45.5t40.5 31t53 11.5zM177 325q-40 -41 -58 -79t-18 -77q0 -25 6.5 -46.5t18.5 -38t30.5 -26t42.5 -9.5q26 0 54 15.5t49 44.5z" />
<glyph unicode="'" horiz-adv-x="156" d="M55 514v182h48v-182h-48z" />
<glyph unicode="(" horiz-adv-x="213" d="M172 -112q-26 39 -49.5 85.5t-41 99t-27.5 110t-10 119.5q0 121 36 227t90 187l30 -14q-23 -42 -41.5 -90t-31.5 -99t-20 -103.5t-7 -103.5q0 -110 27 -214.5t72 -187.5l-27 -16v0z" />
<glyph unicode=")" horiz-adv-x="213" d="M71 -112q-1 1 -4.5 3t-8 5t-8.5 5t-5 3q45 83 72 187.5t27 214.5q0 51 -7 103t-20 103t-31.5 99.5t-41.5 90.5q3 1 15 6.5t14 7.5q54 -81 90.5 -187t36.5 -228q0 -61 -10 -118.5t-27.5 -110t-41 -99t-50.5 -85.5z" />
<glyph unicode="*" horiz-adv-x="340" d="M270 443l-43 -28l-62 104l-62 -105l-42 29l75 96l-112 32l17 48l106 -45l-8 121h51l-8 -121l107 45l17 -48l-113 -32z" />
<glyph unicode="+" horiz-adv-x="367" d="M207 269v-161h-47v161h-148v49h148v160h47v-160h147v-49h-147z" />
<glyph unicode="," horiz-adv-x="164" d="M78 -107h-35l21 102h-17v76h70v-75z" />
<glyph unicode="-" horiz-adv-x="334" d="M49 259v55h247v-55h-247z" />
<glyph unicode="." horiz-adv-x="164" d="M47 0v73h70v-73h-70z" />
<glyph unicode="/" horiz-adv-x="244" d="M54 -42h-48l186 767h48z" />
<glyph unicode="0" horiz-adv-x="367" d="M319 121q0 -32 -11 -56t-29.5 -40t-43 -24t-51.5 -8t-51.5 8t-43 24t-29.5 40t-11 56v452q0 31 11 55.5t29.5 40.5t43 24.5t51.5 8.5q57 0 96 -33t39 -96v-452zM257 575q0 32 -20.5 50.5t-52.5 18.5q-33 0 -54 -18.5t-21 -50.5v-456q0 -32 21 -50.5t54 -18.5 q32 0 52.5 18.5t20.5 50.5v456z" />
<glyph unicode="1" horiz-adv-x="367" d="M198 0v631l-104 -79v66l102 78h63v-696h-61z" />
<glyph unicode="2" horiz-adv-x="367" d="M185 644q-35 0 -55.5 -27.5t-20.5 -88.5l-60 11q0 78 34 120t104 43q73 0 104.5 -41.5t31.5 -109.5q0 -44 -8.5 -81.5t-28.5 -75.5l-168 -337h200v-57h-268v55l186 373q14 29 18.5 59.5t4.5 63.5q0 17 -2.5 34t-10.5 30t-22.5 21t-38.5 8z" />
<glyph unicode="3" horiz-adv-x="367" d="M317 135q0 -72 -37.5 -107t-99.5 -35q-69 0 -102 38.5t-31 110.5l61 12q-2 -48 14.5 -76t59.5 -28q32 0 53.5 19t21.5 64v111q0 48 -19.5 68.5t-57.5 20.5h-29v55h31q36 0 55.5 19t19.5 65v94q0 16 -3.5 30t-12 24.5t-22 17t-33.5 6.5q-41 0 -59.5 -28.5t-18.5 -73.5 q-3 1 -11.5 2t-19 2.5t-19 3t-11.5 1.5q1 33 10 60.5t27 47.5t44.5 31.5t61.5 11.5q36 0 60.5 -10.5t39.5 -29t21.5 -43.5t6.5 -54v-81q0 -19 -2 -37t-8.5 -33.5t-18.5 -28.5t-32 -22v-2q21 -8 33 -20.5t18.5 -29t8 -36.5t1.5 -43z" />
<glyph unicode="4" horiz-adv-x="367" d="M291 115v-115h-62v115h-205v56l146 525h61l-147 -525h145v194h62v-194h53v-56h-53z" />
<glyph unicode="5" horiz-adv-x="367" d="M183 -7q-70 0 -102.5 40t-34.5 112l61 9q0 -47 15 -75.5t62 -28.5q32 0 52 19t21 65l2 186q0 38 -19.5 55t-52.5 17q-25 0 -44 -11t-28 -30h-54v345h258v-55h-204v-228h4q15 15 38 23t49 8q57 0 85.5 -32t28.5 -81l-2 -195q-1 -72 -37.5 -107.5t-97.5 -35.5z" />
<glyph unicode="6" horiz-adv-x="367" d="M257 276q0 31 -20.5 48.5t-52.5 17.5q-20 0 -34 -7.5t-23 -19.5t-13.5 -27t-4.5 -30v-141q0 -32 21 -49.5t54 -17.5q32 0 52.5 17.5t20.5 49.5v159zM144 378q11 9 27 15t32 6q60 0 88 -36t28 -90v-152q0 -32 -11 -56t-29.5 -40t-43 -24t-51.5 -8t-51.5 8t-43 24t-29.5 40 t-11 56v122q0 40 5.5 67t13.5 48l131 338h62q-20 -52 -40.5 -106t-37.5 -98.5t-28.5 -75t-13.5 -36.5z" />
<glyph unicode="7" horiz-adv-x="367" d="M139 0h-60l181 641h-162v-84h-53v139h277v-51z" />
<glyph unicode="8" horiz-adv-x="367" d="M319 471q0 -39 -16 -65.5t-41 -42.5q25 -16 41 -43t16 -65v-134q0 -32 -11 -56t-29.5 -40t-43 -24t-51.5 -8t-51.5 8t-43 24t-29.5 40t-11 56v134q0 38 15 65t41 43q-26 15 -41 42t-15 66v102q0 31 11 55.5t29.5 40.5t43 24.5t51.5 8.5t51.5 -8.5t43 -24.5t29.5 -40.5 t11 -55.5v-102zM257 268q0 31 -20.5 50t-52.5 20q-33 0 -54 -19.5t-21 -50.5v-151q0 -32 21 -49.5t54 -17.5q32 0 52.5 17.5t20.5 49.5v151zM257 577q0 32 -20.5 50t-52.5 18q-33 0 -54 -18t-21 -50v-118q0 -31 21 -49.5t54 -18.5q32 0 52.5 18.5t20.5 49.5v118z" />
<glyph unicode="9" horiz-adv-x="367" d="M109 420q0 -31 21 -49t53 -18q19 0 33 7.5t23 19.5t13.5 27.5t4.5 30.5v141q0 32 -20.5 49.5t-52.5 17.5t-53.5 -17.5t-21.5 -49.5v-159zM222 318q-10 -9 -26 -15t-33 -6q-60 0 -87 36t-27 90v152q0 32 11 56t29.5 40t43 24t51.5 8q61 0 98 -32t37 -96v-122 q0 -40 -5.5 -67t-13.5 -48l-132 -338h-63q20 52 40.5 106t37.5 98.5t28.5 75t13.5 36.5z" />
<glyph unicode=":" horiz-adv-x="164" d="M47 303v74h70v-74h-70zM47 0v73h70v-73h-70z" />
<glyph unicode=";" horiz-adv-x="164" d="M78 -107h-35l21 102h-17v76h70v-75zM47 303v73h70v-73h-70z" />
<glyph unicode="&#x3c;" horiz-adv-x="367" d="M13 272v44l339 180v-53l-290 -149l290 -149v-53z" />
<glyph unicode="=" horiz-adv-x="367" d="M12 342v50h342v-50h-342zM12 193v51h342v-51h-342z" />
<glyph unicode="&#x3e;" horiz-adv-x="367" d="M14 92v53l291 149l-291 149v53l339 -180v-44z" />
<glyph unicode="?" horiz-adv-x="357" d="M181 702q42 0 71.5 -11.5t47.5 -33t26.5 -52t8.5 -67.5q0 -54 -17.5 -98t-38 -80t-38 -65.5t-17.5 -55.5v-71h-60v80q0 19 6 40.5t17 38.5q23 39 39 65t26.5 48t15 43.5t4.5 50.5q0 49 -19.5 79.5t-71.5 30.5q-35 0 -61 -24.5t-27 -78.5l-62 8q2 75 44.5 114t105.5 39z M162 0v64h63v-64h-63z" />
<glyph unicode="@" horiz-adv-x="746" d="M477 260q0 -33 16.5 -50.5t38.5 -17.5q20 0 39 7.5t33.5 28t23 58t8.5 97.5q0 64 -18.5 115t-51.5 85.5t-78.5 53t-99.5 18.5q-72 0 -125 -25t-87 -68t-50.5 -101.5t-16.5 -125.5q0 -74 17.5 -133.5t53 -102.5t88 -66t122.5 -23q46 0 86.5 8t82.5 33l19 -45 q-42 -20 -88.5 -32t-94.5 -12q-79 0 -141.5 23.5t-106 70.5t-66.5 117t-23 162q0 82 21.5 150t63 116.5t102.5 75t140 26.5q74 0 131 -24t95.5 -66.5t58 -101.5t19.5 -128t-13.5 -115t-35.5 -73.5t-50.5 -39t-59.5 -11.5q-8 0 -20.5 3t-26 10.5t-25 19t-16.5 29.5h-1 q-15 -28 -44.5 -40.5t-57.5 -12.5q-26 0 -43.5 9.5t-28.5 25t-15.5 35.5t-4.5 41t5.5 43t18.5 40t34 29.5t52 11.5h67v52q0 26 -13.5 42.5t-46.5 16.5q-21 0 -37.5 -10.5t-21.5 -30.5q-2 0 -9.5 2t-15.5 4.5t-15.5 4.5t-9.5 3q11 34 40.5 54.5t70.5 20.5q24 0 44 -5.5 t35 -18t23.5 -32.5t8.5 -50v-181zM424 344h-55q-29 0 -50.5 -17.5t-21.5 -61.5q0 -25 16 -44.5t48 -19.5q29 0 46 19t17 49v75z" />
<glyph unicode="A" horiz-adv-x="386" d="M316 0l-37 168h-173l-36 -168h-58l150 696h62l153 -696h-61zM191 594l-33 -168l-42 -200h152l-42 202l-32 166h-3z" />
<glyph unicode="B" horiz-adv-x="412" d="M289 365q46 -14 63.5 -57.5t17.5 -103.5q0 -109 -45 -156.5t-133 -47.5h-139v696h146q45 0 76.5 -12t51 -35t28 -56.5t8.5 -75.5q0 -54 -16 -90t-58 -58v-4zM310 209q0 63 -24.5 97t-84.5 34h-87v-284h82q36 0 58.5 12t34.5 33t16.5 49t4.5 59zM303 518q0 59 -26 90.5 t-89 31.5h-74v-246h82q59 0 83 32t24 92z" />
<glyph unicode="C" horiz-adv-x="384" d="M202 702q73 0 113 -40.5t40 -113.5l-62 -12q1 54 -23 81.5t-69 27.5q-26 0 -43.5 -10t-28.5 -26.5t-16 -37.5t-5 -43v-371q0 -20 5 -39.5t16 -34.5t28.5 -24t43.5 -9q41 0 66 25.5t26 83.5l63 -11q-2 -77 -43.5 -116t-110.5 -39q-76 0 -115.5 41.5t-39.5 119.5v367 q0 37 8 70t26 57.5t47.5 39t73.5 14.5z" />
<glyph unicode="D" horiz-adv-x="414" d="M209 696q63 0 98.5 -21.5t49.5 -72.5q11 -41 11 -103.5v-149.5v-148.5t-12 -100.5q-9 -30 -25 -49t-36 -30.5t-44 -16t-51 -4.5h-147v696h156zM305 520q0 27 -5 49t-17 37.5t-32 24.5t-50 9h-87v-584h88q54 0 78.5 30t24.5 90v344z" />
<glyph unicode="E" horiz-adv-x="361" d="M53 0v696h291v-57h-230v-255h201v-57h-201v-271h230v-56h-291z" />
<glyph unicode="F" horiz-adv-x="360" d="M53 0v696h291v-57h-230v-255h201v-57h-201v-327h-61z" />
<glyph unicode="G" horiz-adv-x="405" d="M203 -7q-75 0 -115 41t-40 119v363q0 40 7.5 74t25.5 59t48 39t74 14q73 0 112 -38.5t41 -112.5l-61 -15v1q0 55 -24.5 81.5t-68.5 26.5q-26 0 -43.5 -10t-28.5 -26.5t-16 -37.5t-5 -43v-372q0 -20 5 -39.5t16 -34.5t28.5 -24t43.5 -9h1q42 0 70 24.5t28 67.5v173h-84v54 h145v-221q0 -38 -12.5 -66.5t-34.5 -48t-50.5 -29.5t-61.5 -10z" />
<glyph unicode="H" horiz-adv-x="420" d="M305 0v329h-191v-329h-61v696h61v-313h191v313h62v-696h-62z" />
<glyph unicode="I" horiz-adv-x="183" d="M60 0v696h63v-696h-63z" />
<glyph unicode="J" horiz-adv-x="338" d="M270 696v-532q0 -83 -39.5 -127t-119.5 -44q-34 0 -65.5 12t-50.5 38l42 40q13 -14 34 -24t41 -10q41 0 69 26t28 83v538h61z" />
<glyph unicode="K" horiz-adv-x="406" d="M335 0l-139 354l-83 -155v-199h-60v696h60v-382h2l194 382h63l-140 -275l167 -421h-64z" />
<glyph unicode="L" horiz-adv-x="337" d="M53 0v696h61v-640h216v-56h-277z" />
<glyph unicode="M" horiz-adv-x="548" d="M431 526q-5 -12 -14 -35.5t-18.5 -49.5t-19 -49.5t-13.5 -35.5q-1 -3 -6.5 -17.5t-13.5 -34.5t-17.5 -43t-17.5 -43t-14 -34.5t-7 -17.5h-34q-5 13 -15.5 39t-22 55t-22 55t-15.5 39l-64 170h-4v-524h-61v696h62q6 -15 18 -46t25 -65.5t25 -65.5t17 -46l73 -194h3 q5 14 15 41t21.5 57t22 57.5t15.5 41.5q1 3 7.5 20t15.5 40t19.5 50t19 50t15 39.5t7.5 20.5h63v-696h-61v526h-4z" />
<glyph unicode="N" horiz-adv-x="441" d="M111 526v-526h-61v696h58q6 -15 17.5 -43t26 -62.5t30 -72t30 -72t26 -62.5t18.5 -43l70 -174h4v529h61v-696h-58q-6 15 -17.5 42.5t-26 62t-30 72t-30 71.5t-26.5 61.5t-18 42.5l-71 174h-3z" />
<glyph unicode="O" horiz-adv-x="409" d="M363 172q0 -88 -39.5 -133.5t-119.5 -45.5t-118.5 43t-38.5 120v366q0 37 8 70t26.5 57.5t49 38.5t74.5 14q45 0 75.5 -12.5t48.5 -36t26 -56t8 -72.5v-353zM301 534q0 22 -5 42t-16 35.5t-29.5 25t-45.5 9.5q-29 0 -48 -12.5t-30 -31.5t-15.5 -41.5t-4.5 -42.5v-363 q0 -20 5.5 -39t17 -34t30 -24t44.5 -9q53 0 75 34t22 82v369z" />
<glyph unicode="P" horiz-adv-x="391" d="M192 696q52 0 86.5 -14t54 -40.5t27.5 -64t8 -83.5q0 -44 -8 -82t-28 -65.5t-55.5 -43t-89.5 -15.5h-73v-288h-61v696h139zM114 345h70q38 0 62 10.5t38 30t19 47t5 60.5q0 31 -4.5 58t-18 46.5t-37.5 31t-62 11.5h-72v-295z" />
<glyph unicode="Q" horiz-adv-x="408" d="M363 172q0 -63 -21 -105l59 -46l-32 -39l-58 45q-37 -34 -106 -34q-80 0 -119 43t-39 120v366q0 37 8 70t26.5 57.5t49 38.5t74.5 14q45 0 75.5 -12.5t48.5 -36t26 -56t8 -72.5v-353zM301 534q0 22 -5 42t-16 35.5t-29.5 25t-45.5 9.5q-29 0 -48 -12.5t-30 -31.5 t-15.5 -41.5t-4.5 -42.5v-363q0 -20 5.5 -39t17 -34t30 -24t44.5 -9q38 0 59 17l-63 50l31 38l60 -47q5 12 7.5 27t2.5 31v369z" />
<glyph unicode="R" horiz-adv-x="406" d="M196 696q92 0 131 -49t39 -143q0 -62 -21.5 -109.5t-77.5 -69.5q26 -79 54 -163l54 -162h-63l-102 312h-97v-312h-61v696h144zM113 640v-273h77q64 0 89.5 34.5t25.5 102.5q0 31 -5.5 56t-19 43t-36.5 27.5t-58 9.5h-73z" />
<glyph unicode="S" horiz-adv-x="386" d="M354 186q0 -44 -8 -79.5t-27 -60.5t-50 -39t-76 -14q-42 0 -72 12t-49.5 32.5t-29 48.5t-9.5 61l62 13q0 -21 5 -40.5t16.5 -34.5t30 -24t46.5 -9q34 0 53.5 11t29.5 29t13 42t3 51q0 33 -3 54.5t-14 37t-31.5 28.5t-55.5 28q-50 22 -79.5 43t-45 43.5t-20.5 48t-5 55.5 q0 39 9.5 72t29.5 56.5t50 37t71 13.5q45 0 75 -13.5t48 -35.5t25.5 -48.5t7.5 -51.5l-62 -15q0 47 -21.5 76.5t-75.5 29.5q-30 0 -48.5 -11.5t-29 -29t-14 -38.5t-3.5 -41q0 -23 4 -41t16.5 -34t36.5 -31t65 -32q45 -18 71 -37.5t39.5 -43t17.5 -52.5t4 -67z" />
<glyph unicode="T" horiz-adv-x="320" d="M191 640v-640h-63v640h-125v56h313v-56h-125z" />
<glyph unicode="U" horiz-adv-x="407" d="M361 695v-523q0 -88 -39 -133.5t-119 -45.5q-79 0 -118.5 43t-39.5 120v539h61v-540q0 -20 5.5 -39t17 -34t30 -24t44.5 -9q53 0 75 34t22 82v530h61z" />
<glyph unicode="V" horiz-adv-x="387" d="M226 -1h-70l-138 697h62l71 -368l39 -234h3l40 235l72 367h63z" />
<glyph unicode="W" horiz-adv-x="581" d="M454 -1h-63l-68 368l-32 186h-3l-31 -189l-68 -365h-62l-109 697h63l51 -347l28 -227h3l35 225l64 349h58l62 -349l37 -225h3l27 226l51 348h63z" />
<glyph unicode="X" horiz-adv-x="362" d="M289 -1l-108 294l-109 -294h-64l141 361l-134 336h65l101 -275l100 275h66l-137 -336l144 -361h-65z" />
<glyph unicode="Y" horiz-adv-x="363" d="M182 375l44 140l60 181h64q-6 -17 -17 -48.5t-24.5 -71t-28.5 -82t-28.5 -81.5t-24 -71t-16.5 -48v-295h-61v295q-6 16 -16.5 48t-24 71t-28.5 81.5t-28.5 82t-24.5 71t-17 48.5h64l60 -183q3 -9 9 -28t13 -41t13 -41t9 -28h3z" />
<glyph unicode="Z" horiz-adv-x="313" d="M296 640l-218 -584h212v-56h-274v56l218 584h-204v56h266v-56z" />
<glyph unicode="[" horiz-adv-x="204" d="M63 -104v801h125v-41h-71v-720h71v-40h-125z" />
<glyph unicode="\" horiz-adv-x="213" d="M155 -18l-145 727h48l144 -727h-47z" />
<glyph unicode="]" horiz-adv-x="204" d="M30 -105v41h71v720h-71v41h124v-802h-124z" />
<glyph unicode="^" horiz-adv-x="367" d="M163 693h44l153 -337h-52l-124 282l-123 -282h-51z" />
<glyph unicode="_" horiz-adv-x="500" d="M0 -126v50h500v-50h-500z" />
<glyph unicode="`" horiz-adv-x="350" d="M189 556l-92 152l58 21l68 -159z" />
<glyph unicode="a" horiz-adv-x="352" d="M37 405q13 43 48 68t89 25q65 0 100.5 -29.5t35.5 -103.5v-365h-62v44h-1q-22 -31 -49.5 -40.5t-58.5 -9.5q-32 0 -53.5 12t-35 31.5t-19.5 44.5t-6 52q0 28 6 56t22 50.5t42 37t67 14.5h87v72q0 35 -16 56t-62 21q-22 0 -45.5 -12.5t-30.5 -41.5zM176 238 q-38 0 -64.5 -22.5t-26.5 -78.5q0 -38 17.5 -61.5t59.5 -23.5q40 0 63.5 22t23.5 64v100h-73z" />
<glyph unicode="b" horiz-adv-x="358" d="M182 52q27 0 45.5 11.5t27.5 39.5q6 20 7.5 54t1.5 81q0 52 -1.5 95t-10.5 64q-16 41 -68 41q-24 0 -40 -10t-26 -26t-14 -36t-4 -40v-182q0 -41 22 -66.5t60 -25.5zM201 -6q-40 0 -61 12.5t-38 35.5h-2v-42h-60v726h60v-287h2q16 29 45.5 43.5t57.5 14.5 q45 -1 68.5 -17.5t35.5 -44.5q11 -26 13.5 -61.5t3.5 -77.5v-70q0 -56 -6 -114q-4 -38 -17 -61.5t-30.5 -36t-37 -16.5t-34.5 -4z" />
<glyph unicode="c" horiz-adv-x="332" d="M178 498q69 0 101 -36t32 -101l-63 -9v1q4 39 -16.5 64.5t-56.5 25.5q-23 0 -41.5 -11t-28.5 -36q-8 -19 -9.5 -63t-2.5 -104q1 -39 2 -75t6 -54q8 -24 26 -38t47 -14q36 0 55.5 22t18.5 67l63 -11q-3 -133 -140 -133q-30 0 -52.5 7.5t-38 20.5t-25 29t-13.5 34 q-3 12 -5 30.5t-2.5 40t-1 43.5t-0.5 42q0 26 0.5 53t2.5 51t4.5 43.5t7.5 31.5q13 36 44.5 57.5t85.5 21.5z" />
<glyph unicode="d" horiz-adv-x="359" d="M173 52q39 0 61 25.5t22 66.5v199q0 40 -20 67.5t-62 27.5q-27 0 -45.5 -14t-26.5 -43q-5 -21 -7 -59.5t-2 -83.5q0 -47 1.5 -81t7.5 -54q8 -28 25.5 -39.5t45.5 -11.5zM155 -6q-16 0 -35.5 4t-36.5 16.5t-30.5 36t-17.5 61.5q-3 31 -3.5 62t-0.5 60q0 60 2 107.5 t14 80.5t38 54.5t76 21.5q35 0 58 -15t34 -34h2v277h61v-726h-61v42h-2q-16 -23 -37.5 -35.5t-60.5 -12.5z" />
<glyph unicode="e" horiz-adv-x="350" d="M178 498q60 0 93.5 -29.5t39.5 -83.5q1 -11 1.5 -22t0.5 -22v-110h-220q0 -10 0.5 -19t0.5 -19q0 -26 1.5 -53t6.5 -41q16 -50 72 -50q38 0 56 22.5t20 59.5l62 -12q-5 -61 -40.5 -93.5t-100.5 -32.5q-31 0 -53.5 8t-38 20.5t-25 29t-13.5 33.5q-3 12 -5 30.5t-2.5 40 t-1 43.5t-0.5 42q0 26 0.5 52t2.5 50t4.5 43.5t7.5 32.5q14 37 45 58.5t86 21.5zM104 395q-6 -16 -7.5 -44.5t-2.5 -69.5h158v52q0 21 -2.5 40.5t-11 34.5t-23.5 24t-40 9q-22 0 -41 -10t-30 -36z" />
<glyph unicode="f" horiz-adv-x="222" d="M126 439v-439h-63v439h-52v52h52v123q0 58 30.5 85t78.5 27h36v-57h-26q-30 0 -43 -17t-13 -43v-118h80v-52h-80z" />
<glyph unicode="g" horiz-adv-x="363" d="M158 498q40 0 61 -13t38 -36h2v42h60v-525q0 -34 -6 -64t-21.5 -52.5t-43.5 -36t-71 -13.5q-60 0 -95.5 31.5t-37.5 91.5l61 11q1 -35 19 -56.5t57 -21.5t58.5 27t19.5 63v106h-2q-16 -29 -45.5 -43t-57.5 -14q-45 0 -69 18t-36 47q-11 27 -13.5 65.5t-2.5 80.5v48 q0 30 0.5 60.5t3.5 64.5q4 38 17.5 61.5t31.5 36t37.5 17t34.5 4.5zM176 439q-26 0 -44.5 -11.5t-27.5 -39.5q-6 -20 -7.5 -54t-1.5 -81q0 -52 1.5 -95t10.5 -64q16 -41 68 -41q24 0 40 10t26 26t14 36t4 40v182q0 41 -22 66.5t-61 25.5z" />
<glyph unicode="h" horiz-adv-x="364" d="M102 440h2q17 28 44.5 43t60.5 15q31 0 52.5 -10t35.5 -27t20.5 -41t6.5 -52v-368h-63v350q0 38 -17.5 62t-59.5 24q-40 0 -61.5 -26.5t-21.5 -64.5v-345h-61v726h62v-286z" />
<glyph unicode="i" horiz-adv-x="163" d="M49 612v64h63v-64h-63zM49 0v492h62v-492h-62z" />
<glyph unicode="j" horiz-adv-x="163" d="M51 613v64h63v-64h-63zM113 -71q0 -27 -4.5 -50.5t-16.5 -41t-33 -27.5t-54 -10h-22v56h11q37 0 47 22t10 63v551h62v-563z" />
<glyph unicode="k" horiz-adv-x="360" d="M104 229q11 18 33.5 54t46.5 76.5t46 77t33 54.5h69l-114 -186q9 -19 28 -62t40.5 -90.5t41 -90.5t28.5 -62h-67q-5 11 -14 31t-19.5 44t-22 50.5t-22 50.5t-19 44t-13.5 31q-6 -9 -16.5 -26.5t-21.5 -37t-21.5 -37.5t-16.5 -27v-123h-61v726h61v-497h1z" />
<glyph unicode="l" horiz-adv-x="189" d="M49 726h61v-603q0 -36 10.5 -55t44.5 -19h12v-56h-15q-28 0 -49.5 5.5t-35.5 19t-21 36t-7 57.5v615z" />
<glyph unicode="m" horiz-adv-x="582" d="M535 0h-62v350q0 35 -16.5 60.5t-57.5 25.5q-35 0 -56 -25.5t-22 -63.5v-347h-61v350q0 35 -16 60.5t-56 25.5q-39 0 -60 -27.5t-21 -66.5v-342h-60v492h61v-52h3q17 28 40 43t57 15q40 0 64.5 -17t36.5 -46q19 29 47.5 46.5t64.5 16.5q30 0 52 -10t35.5 -27.5t20 -41 t6.5 -51.5v-368z" />
<glyph unicode="n" horiz-adv-x="362" d="M100 440h2q17 28 44.5 43t60.5 15q31 0 52.5 -10t35.5 -27t20.5 -41t6.5 -52v-368h-63v350q0 38 -16 62t-58 24q-41 0 -63.5 -27.5t-22.5 -66.5v-342h-61v492h62v-52z" />
<glyph unicode="o" horiz-adv-x="356" d="M180 498q56 0 86.5 -22t42.5 -55q9 -26 11.5 -66t2.5 -80v-49q0 -27 -1 -53.5t-4 -56.5q-4 -37 -18.5 -61t-35 -37.5t-44.5 -19t-47 -5.5q-61 0 -91 26.5t-40 64.5q-3 12 -5 30.5t-3 40t-1 43.5v42q0 26 0.5 52.5t2.5 50.5t4.5 43.5t7.5 31.5q13 36 45.5 58t86.5 22z M179 443q-23 0 -43 -10t-31 -36q-7 -18 -9 -55t-2 -88v-32q0 -41 1 -73t7 -49q15 -51 77 -51q29 0 49.5 17t27.5 46q3 18 5 53t2 73q0 21 -0.5 44t-1 44t-2.5 38t-5 26q-8 26 -28 39.5t-47 13.5z" />
<glyph unicode="p" horiz-adv-x="357" d="M178 439q-39 0 -61 -25.5t-22 -66.5v-199q0 -40 19.5 -67.5t61.5 -27.5q58 0 73 57q5 21 6.5 59.5t1.5 83.5q0 47 -1.5 81t-7.5 54q-8 28 -25 39.5t-45 11.5zM196 498q16 0 35.5 -4.5t36.5 -17t30.5 -36t17.5 -61.5q3 -31 3 -62.5v-66.5q0 -55 -2 -101.5t-14 -79.5 t-37.5 -54t-75.5 -21q-35 0 -58.5 14.5t-34.5 33.5h-2v-235h-60v684h60v-42h2q17 23 38 36t61 13z" />
<glyph unicode="q" horiz-adv-x="362" d="M176 439q-26 0 -44.5 -11.5t-27.5 -39.5q-6 -20 -7.5 -54t-1.5 -81q0 -52 2 -95t10 -64q18 -41 68 -41q24 0 40 10t26 26t14 36t4 40v182q0 41 -22 66.5t-61 25.5zM158 498q40 0 61 -13t38 -36h2v42h60v-686h-60v247h-2q-16 -29 -45.5 -43t-57.5 -14q-48 0 -72.5 20.5 t-35.5 53.5q-8 26 -10.5 62.5t-2.5 74.5v76q0 23 0.5 46.5t3.5 50.5q4 38 17.5 61.5t31.5 36t37.5 17t34.5 4.5z" />
<glyph unicode="r" horiz-adv-x="246" d="M116 430q17 39 43 54t64 15h7.5t7.5 -1v-72q-7 1 -13.5 1.5t-13.5 0.5q-46 0 -71.5 -27.5t-25.5 -84.5v-316h-62v492h62v-62h2z" />
<glyph unicode="s" horiz-adv-x="331" d="M90 133q-1 -38 19 -61t56 -22q44 0 60.5 21t16.5 62q0 19 -3 33t-12 25t-25 20t-42 19q-39 15 -63.5 30.5t-38 32.5t-18.5 36t-5 40q0 57 33 93.5t102 36.5t102 -34.5t33 -96.5l-64 -9q2 42 -18.5 62.5t-53.5 20.5q-22 0 -36.5 -6.5t-22.5 -17t-11.5 -23.5t-3.5 -26 q0 -14 3.5 -25.5t14 -22t29 -20.5t48.5 -20q37 -14 59.5 -29t34 -33t15 -39t3.5 -46q0 -62 -31 -101.5t-104 -39.5q-136 0 -139 130z" />
<glyph unicode="t" horiz-adv-x="225" d="M130 492h69v-49h-69v-318q0 -37 14 -52.5t44 -15.5h13v-57h-30q-57 0 -80 32t-23 78v333h-54v49h55v127h61v-127z" />
<glyph unicode="u" horiz-adv-x="364" d="M261 52h-3q-17 -28 -44 -42.5t-60 -14.5q-31 0 -52.5 9.5t-35.5 27t-20.5 41t-6.5 51.5v369h63v-351q0 -42 16.5 -65t58.5 -23q38 0 61.5 27.5t23.5 66.5v345h61v-492h-62v51z" />
<glyph unicode="v" horiz-adv-x="324" d="M196 0h-70l-121 492h65q3 -14 10 -43t14 -61.5t14 -62t10 -42.5t9 -41.5t12.5 -60t12.5 -60t9 -41.5h3q3 13 8.5 41.5t12.5 61t13 61t9 41.5t9.5 42t13.5 61t13.5 61t9.5 43h65z" />
<glyph unicode="w" horiz-adv-x="538" d="M267 373l-46 -214l-36 -159h-62l-113 491h64q6 -29 15.5 -75t20.5 -99q7 -32 13.5 -64.5t12.5 -61.5t11 -54t8 -41h3q7 38 19.5 99.5t25.5 124.5l36 171h63l33 -163q12 -59 23.5 -117.5t23.5 -116.5h3l36 182q4 21 10 50t12 59t12 58t10 48h64q-29 -124 -57 -245.5 t-56 -245.5h-63l-34 148q-13 56 -25 112.5t-24 112.5h-3z" />
<glyph unicode="x" horiz-adv-x="314" d="M240 0l-82 198l-85 -198h-67l119 252l-114 240h69l78 -187l76 187h71l-112 -240l116 -252h-69z" />
<glyph unicode="y" horiz-adv-x="326" d="M167 92q11 48 22 100.5t22 100.5l48 198h62l-148 -577q-6 -22 -14.5 -42t-21.5 -35t-32 -24t-46 -9h-23v53h16q30 0 45 21t25 66l14 55l-131 492h65q14 -54 26 -107.5t25 -107.5q5 -21 11 -46.5l12 -51t11.5 -48.5t8.5 -38h3z" />
<glyph unicode="z" horiz-adv-x="294" d="M275 437l-190 -380h188v-57h-254v57l189 380h-173v54h240v-54z" />
<glyph unicode="{" horiz-adv-x="222" d="M88 138q0 59 -12 95t-52 44v38q19 4 31.5 16t20 30t10 40t2.5 45v144q0 51 26 79t71 28h20v-41h-17q-15 0 -24.5 -8.5t-14.5 -22t-7 -29.5t-2 -31v-130q0 -32 -6 -56t-15 -41t-19.5 -27t-19.5 -13v-3q10 -3 20.5 -13t19.5 -26.5t14.5 -39.5t5.5 -53v-138q0 -15 2 -30.5 t7 -29t14.5 -22t24.5 -8.5h17v-41h-20q-42 0 -69.5 25.5t-27.5 79.5v139v0z" />
<glyph unicode="|" horiz-adv-x="193" d="M75 -162v878h48v-878h-48z" />
<glyph unicode="}" horiz-adv-x="222" d="M142 -1q0 -49 -24 -77t-62 -28h-31v41h16q15 0 25 7t15 18.5t7 25.5t2 29v148q0 60 19.5 92.5t39.5 39.5v3q-19 7 -39 40.5t-20 96.5v130q0 15 -2 31t-7 29.5t-15 22t-25 8.5h-16v41h34q42 0 62.5 -33.5t20.5 -81.5v-136q0 -23 3 -45t10 -40t19 -30t31 -16v-38 q-40 -8 -51.5 -44t-11.5 -95v-139z" />
<glyph unicode="~" horiz-adv-x="367" d="M106 291q24 0 44 -7t39 -16t36.5 -16t35.5 -7q19 0 30.5 8t29.5 30l35 -22q-17 -29 -40 -49.5t-55 -20.5q-19 0 -38 7.5t-38.5 16t-39 16t-40.5 7.5q-18 0 -30.5 -8t-29.5 -28l-33 24q16 27 39.5 46t54.5 19z" />
<glyph unicode="&#xa1;" horiz-adv-x="214" d="M132 326l6 -526h-63l6 526h51zM139 496v-65h-65v65h65z" />
<glyph unicode="&#xa2;" horiz-adv-x="336" d="M185 498q65 -2 95.5 -38t30.5 -99l-63 -9v3q0 40 -16.5 62t-46.5 25v-393q10 0 17 4q44 15 46 84l62 -11q-3 -126 -125 -132v-109h-29v109q-53 4 -79.5 30.5t-35.5 59.5q-5 19 -6.5 54.5t-1.5 70.5v36q0 25 0.5 51.5t2 49.5t4.5 42t7 31q11 32 37.5 52.5t71.5 25.5v106 h29v-105zM101 100q13 -43 55 -50v390q-17 -2 -30.5 -13t-21.5 -31q-8 -19 -9 -63t-2 -104v-7q1 -34 1.5 -69t6.5 -53z" />
<glyph unicode="&#xa3;" horiz-adv-x="381" d="M204 702q33 0 61 -9.5t48.5 -28t32 -47t10.5 -66.5l-62 -15q1 54 -22 81.5t-67 28.5q-39 0 -61.5 -25t-22.5 -64q0 -21 5 -41.5t11.5 -43t13.5 -49t12 -59.5h101v-52h-96q0 -4 0.5 -13t0.5 -13q0 -71 -15 -124t-40 -106h230v-56h-298v56q29 54 45.5 107t16.5 121 q0 7 -0.5 14t-1.5 14h-60v52h56q-5 30 -12.5 54.5t-15 46.5t-12.5 43t-5 44q0 68 39 109t108 41z" />
<glyph unicode="&#xa4;" horiz-adv-x="492" d="M58 471q7 8 18 19.5t19 19.5l54 -55q43 33 97 33q53 0 98 -33q4 4 11.5 12l15 16t14.5 15.5t12 11.5l38 -39l-54 -53q16 -22 24.5 -46.5t8.5 -51.5q0 -26 -8.5 -49.5t-24.5 -45.5q4 -5 11.5 -12.5l15.5 -15.5t15.5 -15t11.5 -11q-11 -11 -19 -20t-19 -19l-53 55 q-42 -32 -98 -32q-53 0 -97 32l-54 -55l-38 39l55 54q-32 42 -32 95q0 56 32 98zM134 320q-1 -23 8 -43t24.5 -35.5t36 -24.5t43.5 -9t44 9t36.5 24t24.5 35.5t9 43.5q0 24 -9 45t-24 36.5t-36 24.5t-45 9q-23 0 -43.5 -9t-36 -25t-24.5 -36.5t-8 -44.5z" />
<glyph unicode="&#xa5;" horiz-adv-x="367" d="M221 324h109v-40h-118v-66h118v-41h-118v-178h-57v178h-114v41h114v66h-114v40h104l-121 372h59l99 -322h3l98 322h61z" />
<glyph unicode="&#xa6;" horiz-adv-x="193" d="M75 298v418h48v-418h-48zM123 253v-415h-48v415h48z" />
<glyph unicode="&#xa7;" horiz-adv-x="417" d="M376 291q0 -37 -19.5 -67.5t-52.5 -51.5q48 -51 48 -107q0 -64 -44.5 -102t-119.5 -38q-37 0 -73.5 14.5t-63.5 37.5l33 39q28 -23 52 -32t53 -9q51 0 77 24t26 61q0 35 -28 66.5t-91 66.5q-32 18 -55 34t-39 34t-23.5 38.5t-7.5 46.5q0 38 21 68t53 50q-26 23 -38 47.5 t-12 54.5q0 29 10.5 54t29.5 43t45.5 28.5t58.5 10.5q43 0 77.5 -13.5t63.5 -38.5l-39 -40q-27 23 -51 32t-51 9q-40 0 -62 -24.5t-22 -56.5q0 -37 27.5 -60.5t71.5 -49.5q30 -17 56 -34.5t46 -38t31.5 -44t11.5 -52.5zM318 288q0 40 -36 71t-114 69q-26 -8 -43.5 -28.5 t-17.5 -49.5q0 -23 16.5 -44t40.5 -39t50.5 -33t46.5 -25q26 10 41.5 32.5t15.5 46.5z" />
<glyph unicode="&#xa8;" horiz-adv-x="353" d="M224 587v64h55v-64h-55zM73 587v64h56v-64h-56z" />
<glyph unicode="&#xa9;" horiz-adv-x="703" d="M353 -8q-74 0 -130.5 26.5t-94.5 73.5t-57.5 110.5t-19.5 138.5t19.5 139.5t57.5 111.5t94.5 73.5t130.5 26.5q73 0 129 -26.5t94.5 -73.5t58.5 -111.5t20 -139.5t-20 -138.5t-58.5 -110.5t-94.5 -73.5t-129 -26.5zM353 651q-64 0 -112 -24.5t-79.5 -66.5t-47.5 -98.5 t-16 -120.5q0 -65 17 -121t49.5 -97.5t80 -65t108.5 -23.5q63 0 111 24t80 65t48.5 97t16.5 121t-16.5 121.5t-49 98.5t-80.5 66t-110 24zM356 540q22 0 42.5 -6.5t35.5 -20t23.5 -33.5t7.5 -47l-44 -10q0 35 -17.5 54.5t-49.5 19.5q-28 0 -45.5 -18t-17.5 -43v-206 q0 -26 18 -43t45 -17q63 0 66 73l45 -9q0 -55 -32 -81.5t-77 -26.5t-78.5 27t-33.5 82v196q0 53 32 81t80 28z" />
<glyph unicode="&#xaa;" horiz-adv-x="243" d="M20 540q10 31 35.5 50.5t65.5 19.5q47 0 72.5 -20t25.5 -72v-239h-54v22q-14 -15 -32 -20.5t-38 -5.5q-23 0 -38.5 8t-25 21.5t-13.5 31t-4 35.5q0 19 4.5 37.5t15.5 33.5t29.5 24.5t47.5 9.5h54v41q0 20 -9 32.5t-37 12.5q-17 0 -30.5 -9.5t-18.5 -27.5zM165 431h-42 q-25 0 -41.5 -13t-16.5 -45q0 -23 11 -36.5t37 -13.5q25 0 38.5 13.5t13.5 37.5v57z" />
<glyph unicode="&#xab;" horiz-adv-x="386" d="M290 46l-107 186l107 186h61l-105 -186l105 -186h-61zM148 46l-107 186l107 186h61l-106 -186l106 -186h-61z" />
<glyph unicode="&#xac;" horiz-adv-x="367" d="M353 108h-47v161h-294v49h341v-210z" />
<glyph unicode="&#xad;" horiz-adv-x="334" d="M49 259v55h247v-55h-247z" />
<glyph unicode="&#xae;" horiz-adv-x="486" d="M244 272q-47 0 -82.5 16.5t-59.5 46t-36.5 69t-12.5 86.5q0 48 12.5 88.5t36.5 70t59.5 46t82.5 16.5q45 0 80.5 -16.5t59.5 -46t36.5 -70t12.5 -88.5q0 -47 -12.5 -86.5t-36.5 -69t-59.5 -46t-80.5 -16.5zM244 680q-39 0 -68 -14.5t-48.5 -40t-29 -60t-9.5 -73.5 q0 -41 10.5 -74.5t30 -58.5t48.5 -38.5t66 -13.5q39 0 68 14.5t48 39.5t28 58.5t9 72.5t-10 73.5t-29.5 60t-48 40t-65.5 14.5zM281 357l-38 109h-29v-109h-37v264h65q73 0 73 -80q0 -21 -7.5 -40t-28.5 -30q10 -28 21 -57t22 -57h-41zM278 541q0 22 -8.5 34t-31.5 12h-24 v-89h27q21 0 29 12t8 31z" />
<glyph unicode="&#xaf;" horiz-adv-x="352" d="M73 588v54h223v-54h-223z" />
<glyph unicode="&#xb0;" horiz-adv-x="281" d="M241 601q0 -41 -27.5 -69t-69.5 -28q-40 0 -68 28t-28 69q0 20 7.5 38t20.5 31.5t30.5 21t37.5 7.5q42 0 69.5 -28.5t27.5 -69.5zM144 661q-24 0 -41 -17t-17 -43q0 -25 17 -42t41 -17q25 0 42 17t17 42q0 26 -17 43t-42 17z" />
<glyph unicode="&#xb1;" horiz-adv-x="367" d="M12 20v47h342v-47h-342zM207 269v-161h-47v161h-148v49h148v160h47v-160h147v-49h-147z" />
<glyph unicode="&#xb2;" horiz-adv-x="239" d="M121 744q-20 0 -32 -16.5t-12 -51.5l-51 8q-1 48 23 76t73 28q50 0 72.5 -25t22.5 -67q0 -50 -27 -96l-104 -184h127v-47h-185v39l119 214q10 18 14 36t4 37t-9 34t-35 15z" />
<glyph unicode="&#xb3;" horiz-adv-x="239" d="M212 456q0 -43 -23 -67t-68 -24q-51 0 -73 26.5t-20 72.5l51 6q-2 -28 8 -44.5t35 -16.5q20 0 30.5 13t10.5 34v59q0 26 -11.5 37t-34.5 11h-25v43h26q22 0 33.5 10t11.5 33v50q0 17 -8.5 31t-32.5 14q-25 0 -35.5 -17t-10.5 -43l-51 8q2 41 26 68t73 27q26 0 43 -7 t27 -19t14 -28t4 -34v-35q0 -23 -4.5 -42.5t-27.5 -35.5q22 -11 27 -29t5 -44v-57z" />
<glyph unicode="&#xb4;" horiz-adv-x="350" d="M141 570l67 159l59 -21l-92 -152z" />
<glyph unicode="&#xb6;" horiz-adv-x="401" d="M152 341q-7 0 -15.5 1t-13.5 3q-24 3 -43.5 18.5t-33 40t-20.5 55.5t-7 65q0 36 7 70.5t22.5 61t42 42.5t65.5 16h219v-64h-47v-732h-56v732h-64v-732h-56v423z" />
<glyph unicode="&#xb7;" horiz-adv-x="164" d="M47 228v74h70v-74h-70z" />
<glyph unicode="&#xb8;" horiz-adv-x="431" d="M199 13l-18 -72q23 -2 38 -9.5t24 -18t12.5 -23t3.5 -22.5q0 -12 -4.5 -25t-14 -23.5t-24.5 -17.5t-37 -7q-11 0 -33.5 2.5t-43.5 13.5l11 30q17 -8 31.5 -10t26.5 -2q18 0 30.5 9.5t12.5 28.5q0 20 -13.5 31.5t-43.5 10.5l-16 13l26 93z" />
<glyph unicode="&#xb9;" horiz-adv-x="200" d="M106 369v364l-67 -47v52l68 47h48v-416h-49z" />
<glyph unicode="&#xba;" horiz-adv-x="245" d="M123 609q41 0 63 -15t31 -38q7 -16 8.5 -42.5t1.5 -53.5v-30q0 -18 -1 -36t-3 -37q-3 -23 -13.5 -39t-25 -26t-32 -14t-33.5 -4q-44 0 -65.5 18.5t-29.5 42.5q-2 8 -3.5 20t-2 26.5t-0.5 29.5v28q0 33 2 66.5t9 48.5q9 25 32.5 40t61.5 15zM123 563q-34 0 -45 -26 q-5 -11 -6.5 -35t-1.5 -55v-20q0 -26 0.5 -46.5t4.5 -31.5q9 -29 48 -29q19 0 31.5 9.5t16.5 26.5q2 12 3.5 34.5t1.5 47.5q0 26 -1 55t-5 40q-5 14 -17.5 22t-29.5 8z" />
<glyph unicode="&#xbb;" horiz-adv-x="386" d="M42 46l105 186l-105 186h60l107 -186l-107 -186h-60zM184 46l106 186l-106 186h61l107 -186l-107 -186h-61z" />
<glyph unicode="&#xbc;" horiz-adv-x="580" d="M112 279v364l-67 -47v52l68 47h48v-416h-49zM137 -17h-42l314 731h42zM499 66v-66h-49v66h-132v41l94 309h51l-94 -305h81v113h49v-113h35v-45h-35z" />
<glyph unicode="&#xbd;" horiz-adv-x="580" d="M115 279v364l-67 -47v52l68 47h48v-416h-49zM123 -17h-42l314 731h42zM435 375q-20 0 -32 -16.5t-12 -51.5l-51 8q-1 48 23 76t73 28q50 0 72.5 -25t22.5 -67q0 -50 -27 -96l-104 -184h127v-47h-185v39l119 214q10 18 14 36t4 37t-9 34t-35 15z" />
<glyph unicode="&#xbe;" horiz-adv-x="580" d="M221 366q0 -43 -23 -67t-68 -24q-51 0 -73 26.5t-20 72.5l51 6q-2 -28 8 -44.5t35 -16.5q20 0 30.5 13t10.5 34v59q0 26 -11.5 37t-34.5 11h-25v43h26q22 0 33.5 10t11.5 33v50q0 17 -8.5 31t-32.5 14q-25 0 -35.5 -17t-10.5 -43l-51 8q2 41 26 68t73 27q26 0 43 -7 t27 -19t14 -28t4 -34v-35q0 -23 -4.5 -42.5t-27.5 -35.5q22 -11 27 -29t5 -44v-57zM162 -17h-42l314 731h42zM510 66v-66h-49v66h-132v41l94 309h51l-94 -305h81v113h49v-113h35v-45h-35z" />
<glyph unicode="&#xbf;" horiz-adv-x="357" d="M201 -207q-84 0 -119 44.5t-35 118.5q0 25 2 43.5t6.5 33.5t11 28.5t15.5 30.5q17 27 31 48t24 40t15.5 36.5t6.5 37.5v71h59v-82q0 -21 -6 -41t-17 -40q-23 -40 -39 -65t-26 -45.5t-15 -41t-5 -50.5q0 -24 4.5 -44t15 -34.5t28 -22.5t43.5 -8q35 0 61 24t28 78l61 -7 q-2 -76 -44.5 -114.5t-105.5 -38.5zM220 494v-65h-63v65h63z" />
<glyph unicode="&#xc0;" horiz-adv-x="386" d="M316 0l-37 168h-173l-36 -168h-58l150 696h62l153 -696h-61zM191 594l-33 -168l-42 -200h152l-42 202l-32 166h-3zM196 723l-154 91l42 47l135 -109z" />
<glyph unicode="&#xc1;" horiz-adv-x="386" d="M316 0l-37 168h-173l-36 -168h-58l150 696h62l153 -696h-61zM191 594l-33 -168l-42 -200h152l-42 202l-32 166h-3zM164 751l135 109l40 -47l-152 -91z" />
<glyph unicode="&#xc2;" horiz-adv-x="386" d="M316 0l-37 168h-173l-36 -168h-58l150 696h62l153 -696h-61zM191 594l-33 -168l-42 -200h152l-42 202l-32 166h-3zM192 806l-113 -76l-27 23l123 111h40l116 -109l-26 -24z" />
<glyph unicode="&#xc3;" horiz-adv-x="386" d="M316 0l-37 168h-173l-36 -168h-58l150 696h62l153 -696h-61zM191 594l-33 -168l-42 -200h152l-42 202l-32 166h-3zM329 814q-16 -33 -38.5 -50.5t-43.5 -17.5q-15 0 -29.5 6t-28.5 12.5t-27 12.5t-25 6q-26 0 -50 -35l-33 20q12 25 33.5 45.5t46.5 20.5q15 0 28 -6 t26.5 -13t27.5 -13t30 -6q25 0 51 39z" />
<glyph unicode="&#xc4;" horiz-adv-x="386" d="M316 0l-37 168h-173l-36 -168h-58l150 696h62l153 -696h-61zM191 594l-33 -168l-42 -200h152l-42 202l-32 166h-3zM240 749v63h55v-63h-55zM90 749v63h56v-63h-56z" />
<glyph unicode="&#xc5;" horiz-adv-x="386" d="M316 0l-37 168h-173l-36 -168h-58l150 696h62l153 -696h-61zM191 594l-33 -168l-42 -200h152l-42 202l-32 166h-3zM193 712q-36 0 -61 25t-25 61t25 61t61 25q35 0 60 -25t25 -61t-25 -61t-60 -25zM193 848q-21 0 -36 -15t-15 -36t15 -36t36 -15q20 0 35 15t15 36t-15 36 t-35 15z" />
<glyph unicode="&#xc6;" horiz-adv-x="624" d="M310 186h-173l-71 -186h-62l270 696h327v-57h-229v-255h200v-57h-200v-270h229v-57h-291v186zM158 244h152v395h-2z" />
<glyph unicode="&#xc7;" horiz-adv-x="384" d="M202 702q73 0 113 -40.5t40 -113.5l-62 -12q1 54 -23 81.5t-69 27.5q-26 0 -43.5 -10t-28.5 -26.5t-16 -37.5t-5 -43v-371q0 -20 5 -39.5t16 -34.5t28.5 -24t43.5 -9q41 0 66 25.5t26 83.5l63 -11q-2 -71 -38 -110t-96 -44l-13 -53q23 -2 38 -9.5t24 -18t12.5 -23 t3.5 -22.5q0 -12 -4.5 -25t-14 -23.5t-24.5 -17.5t-37 -7q-11 0 -33.5 2.5t-43.5 13.5l11 30q17 -8 31.5 -10t26.5 -2q18 0 30.5 9.5t12.5 28.5q0 20 -13.5 31.5t-43.5 10.5l-16 13l20 72q-70 3 -106 44t-36 116v367q0 37 8 70t26 57.5t47.5 39t73.5 14.5z" />
<glyph unicode="&#xc8;" horiz-adv-x="361" d="M53 0v696h291v-57h-230v-255h201v-57h-201v-271h230v-56h-291zM212 723l-154 91l42 47l135 -109z" />
<glyph unicode="&#xc9;" horiz-adv-x="361" d="M53 0v696h291v-57h-230v-255h201v-57h-201v-271h230v-56h-291zM135 751l135 109l40 -47l-152 -91z" />
<glyph unicode="&#xca;" horiz-adv-x="361" d="M53 0v696h291v-57h-230v-255h201v-57h-201v-271h230v-56h-291zM193 806l-113 -76l-27 23l123 111h40l116 -109l-26 -24z" />
<glyph unicode="&#xcb;" horiz-adv-x="361" d="M53 0v696h291v-57h-230v-255h201v-57h-201v-271h230v-56h-291zM241 749v63h55v-63h-55zM91 749v63h56v-63h-56z" />
<glyph unicode="&#xcc;" horiz-adv-x="183" d="M60 0v696h63v-696h-63zM103 723l-154 91l42 47l135 -109z" />
<glyph unicode="&#xcd;" horiz-adv-x="183" d="M60 0v696h63v-696h-63zM60 751l135 109l40 -47l-152 -91z" />
<glyph unicode="&#xce;" horiz-adv-x="183" d="M60 0v696h63v-696h-63zM93 806l-113 -76l-27 23l123 111h40l116 -109l-26 -24z" />
<glyph unicode="&#xcf;" horiz-adv-x="183" d="M60 0v696h63v-696h-63zM140 749v63h55v-63h-55zM-10 749v63h56v-63h-56z" />
<glyph unicode="&#xd0;" horiz-adv-x="414" d="M6 390h47v306h156q63 0 98.5 -21.5t49.5 -72.5q11 -41 11 -103.5v-149.5v-148.5t-12 -100.5q-9 -30 -25 -49t-36 -30.5t-44 -16t-51 -4.5h-147v342h-47v48zM305 520q0 27 -5 49t-17 37.5t-32 24.5t-50 9h-87v-250h89v-48h-89v-286h88q54 0 78.5 30t24.5 90v344z" />
<glyph unicode="&#xd1;" horiz-adv-x="441" d="M111 526v-526h-61v696h58q6 -15 17.5 -43t26 -62.5t30 -72t30 -72t26 -62.5t18.5 -43l70 -174h4v529h61v-696h-58q-6 15 -17.5 42.5t-26 62t-30 72t-30 71.5t-26.5 61.5t-18 42.5l-71 174h-3zM357 808q-16 -33 -38.5 -50.5t-43.5 -17.5q-15 0 -29.5 6t-28.5 12.5 t-27 12.5t-25 6q-26 0 -50 -35l-33 20q12 25 33.5 45.5t46.5 20.5q15 0 28 -6t26.5 -13t27.5 -13t30 -6q25 0 51 39z" />
<glyph unicode="&#xd2;" horiz-adv-x="409" d="M363 172q0 -88 -39.5 -133.5t-119.5 -45.5t-118.5 43t-38.5 120v366q0 37 8 70t26.5 57.5t49 38.5t74.5 14q45 0 75.5 -12.5t48.5 -36t26 -56t8 -72.5v-353zM301 534q0 22 -5 42t-16 35.5t-29.5 25t-45.5 9.5q-29 0 -48 -12.5t-30 -31.5t-15.5 -41.5t-4.5 -42.5v-363 q0 -20 5.5 -39t17 -34t30 -24t44.5 -9q53 0 75 34t22 82v369zM229 723l-154 91l42 47l135 -109z" />
<glyph unicode="&#xd3;" horiz-adv-x="409" d="M363 172q0 -88 -39.5 -133.5t-119.5 -45.5t-118.5 43t-38.5 120v366q0 37 8 70t26.5 57.5t49 38.5t74.5 14q45 0 75.5 -12.5t48.5 -36t26 -56t8 -72.5v-353zM301 534q0 22 -5 42t-16 35.5t-29.5 25t-45.5 9.5q-29 0 -48 -12.5t-30 -31.5t-15.5 -41.5t-4.5 -42.5v-363 q0 -20 5.5 -39t17 -34t30 -24t44.5 -9q53 0 75 34t22 82v369zM161 751l135 109l40 -47l-152 -91z" />
<glyph unicode="&#xd4;" horiz-adv-x="409" d="M363 172q0 -88 -39.5 -133.5t-119.5 -45.5t-118.5 43t-38.5 120v366q0 37 8 70t26.5 57.5t49 38.5t74.5 14q45 0 75.5 -12.5t48.5 -36t26 -56t8 -72.5v-353zM301 534q0 22 -5 42t-16 35.5t-29.5 25t-45.5 9.5q-29 0 -48 -12.5t-30 -31.5t-15.5 -41.5t-4.5 -42.5v-363 q0 -20 5.5 -39t17 -34t30 -24t44.5 -9q53 0 75 34t22 82v369zM205 806l-113 -76l-27 23l123 111h40l116 -109l-26 -24z" />
<glyph unicode="&#xd5;" horiz-adv-x="409" d="M363 172q0 -88 -39.5 -133.5t-119.5 -45.5t-118.5 43t-38.5 120v366q0 37 8 70t26.5 57.5t49 38.5t74.5 14q45 0 75.5 -12.5t48.5 -36t26 -56t8 -72.5v-353zM301 534q0 22 -5 42t-16 35.5t-29.5 25t-45.5 9.5q-29 0 -48 -12.5t-30 -31.5t-15.5 -41.5t-4.5 -42.5v-363 q0 -20 5.5 -39t17 -34t30 -24t44.5 -9q53 0 75 34t22 82v369zM341 814q-16 -33 -38.5 -50.5t-43.5 -17.5q-15 0 -29.5 6t-28.5 12.5t-27 12.5t-25 6q-26 0 -50 -35l-33 20q12 25 33.5 45.5t46.5 20.5q15 0 28 -6t26.5 -13t27.5 -13t30 -6q25 0 51 39z" />
<glyph unicode="&#xd6;" horiz-adv-x="409" d="M363 172q0 -88 -39.5 -133.5t-119.5 -45.5t-118.5 43t-38.5 120v366q0 37 8 70t26.5 57.5t49 38.5t74.5 14q45 0 75.5 -12.5t48.5 -36t26 -56t8 -72.5v-353zM301 534q0 22 -5 42t-16 35.5t-29.5 25t-45.5 9.5q-29 0 -48 -12.5t-30 -31.5t-15.5 -41.5t-4.5 -42.5v-363 q0 -20 5.5 -39t17 -34t30 -24t44.5 -9q53 0 75 34t22 82v369zM251 749v63h55v-63h-55zM101 749v63h56v-63h-56z" />
<glyph unicode="&#xd7;" horiz-adv-x="380" d="M190 261l-136 -136l-34 34l136 135l-125 126l33 34l127 -126l134 136l33 -34l-134 -135l127 -128l-33 -34z" />
<glyph unicode="&#xd8;" horiz-adv-x="409" d="M363 172q0 -88 -39.5 -133.5t-119.5 -45.5q-76 0 -116 40l-19 -44l-34 14l28 66q-16 35 -16 87v366q0 37 8 70t26.5 57.5t49 38.5t74.5 14q40 0 68 -10t47 -29l19 43l36 -14l-29 -67q9 -21 13 -46t4 -54v-353zM107 170l183 423q-10 23 -30.5 38t-54.5 15q-29 0 -48 -12.5 t-30 -31.5t-15.5 -41.5t-4.5 -42.5v-348zM301 522l-183 -421q11 -23 31.5 -37.5t54.5 -14.5q53 0 75 34t22 82v357z" />
<glyph unicode="&#xd9;" horiz-adv-x="407" d="M361 695v-523q0 -88 -39 -133.5t-119 -45.5q-79 0 -118.5 43t-39.5 120v539h61v-540q0 -20 5.5 -39t17 -34t30 -24t44.5 -9q53 0 75 34t22 82v530h61zM221 723l-154 91l42 47l135 -109z" />
<glyph unicode="&#xda;" horiz-adv-x="407" d="M361 695v-523q0 -88 -39 -133.5t-119 -45.5q-79 0 -118.5 43t-39.5 120v539h61v-540q0 -20 5.5 -39t17 -34t30 -24t44.5 -9q53 0 75 34t22 82v530h61zM163 751l135 109l40 -47l-152 -91z" />
<glyph unicode="&#xdb;" horiz-adv-x="407" d="M361 695v-523q0 -88 -39 -133.5t-119 -45.5q-79 0 -118.5 43t-39.5 120v539h61v-540q0 -20 5.5 -39t17 -34t30 -24t44.5 -9q53 0 75 34t22 82v530h61zM201 806l-113 -76l-27 23l123 111h40l116 -109l-26 -24z" />
<glyph unicode="&#xdc;" horiz-adv-x="407" d="M361 695v-523q0 -88 -39 -133.5t-119 -45.5q-79 0 -118.5 43t-39.5 120v539h61v-540q0 -20 5.5 -39t17 -34t30 -24t44.5 -9q53 0 75 34t22 82v530h61zM253 749v63h55v-63h-55zM103 749v63h56v-63h-56z" />
<glyph unicode="&#xdd;" horiz-adv-x="363" d="M182 375l44 140l60 181h64q-6 -17 -17 -48.5t-24.5 -71t-28.5 -82t-28.5 -81.5t-24 -71t-16.5 -48v-295h-61v295q-6 16 -16.5 48t-24 71t-28.5 81.5t-28.5 82t-24.5 71t-17 48.5h64l60 -183q3 -9 9 -28t13 -41t13 -41t9 -28h3zM151 751l135 109l40 -47l-152 -91z" />
<glyph unicode="&#xde;" horiz-adv-x="391" d="M52 696h60v-137h80q52 0 86.5 -14t54 -40.5t27.5 -64t8 -83.5q0 -44 -8 -82t-28 -65.5t-55.5 -43t-89.5 -15.5h-73v-151h-61zM114 208h70q38 0 62 10.5t38 30t19 47t5 60.5q0 31 -4.5 58t-18 46.5t-37.5 30.5t-62 11h-72v-294z" />
<glyph unicode="&#xdf;" horiz-adv-x="366" d="M255 429q25 -8 39 -21.5t20.5 -31t8 -38.5t1.5 -42v-157q0 -30 -6.5 -56.5t-20.5 -46.5t-38 -31.5t-58 -11.5h-27v49h10q45 0 61.5 23t16.5 66v186q0 42 -23.5 63.5t-54.5 19.5v53q33 4 51 23.5t18 53.5v60q0 35 -21 56.5t-56 21.5t-56.5 -23t-21.5 -55v-590h-60v587 q0 32 10.5 57.5t29 43.5t44 28t55.5 10q29 0 54 -8.5t44 -25t29.5 -41t10.5 -57.5v-60q0 -34 -13.5 -61.5t-46.5 -40.5v-3z" />
<glyph unicode="&#xe0;" horiz-adv-x="352" d="M37 405q13 43 48 68t89 25q65 0 100.5 -29.5t35.5 -103.5v-365h-62v44h-1q-22 -31 -49.5 -40.5t-58.5 -9.5q-32 0 -53.5 12t-35 31.5t-19.5 44.5t-6 52q0 28 6 56t22 50.5t42 37t67 14.5h87v72q0 35 -16 56t-62 21q-22 0 -45.5 -12.5t-30.5 -41.5zM176 238 q-38 0 -64.5 -22.5t-26.5 -78.5q0 -38 17.5 -61.5t59.5 -23.5q40 0 63.5 22t23.5 64v100h-73zM171 556l-92 152l58 21l68 -159z" />
<glyph unicode="&#xe1;" horiz-adv-x="352" d="M37 405q13 43 48 68t89 25q65 0 100.5 -29.5t35.5 -103.5v-365h-62v44h-1q-22 -31 -49.5 -40.5t-58.5 -9.5q-32 0 -53.5 12t-35 31.5t-19.5 44.5t-6 52q0 28 6 56t22 50.5t42 37t67 14.5h87v72q0 35 -16 56t-62 21q-22 0 -45.5 -12.5t-30.5 -41.5zM176 238 q-38 0 -64.5 -22.5t-26.5 -78.5q0 -38 17.5 -61.5t59.5 -23.5q40 0 63.5 22t23.5 64v100h-73zM143 570l67 159l59 -21l-92 -152z" />
<glyph unicode="&#xe2;" horiz-adv-x="352" d="M37 405q13 43 48 68t89 25q65 0 100.5 -29.5t35.5 -103.5v-365h-62v44h-1q-22 -31 -49.5 -40.5t-58.5 -9.5q-32 0 -53.5 12t-35 31.5t-19.5 44.5t-6 52q0 28 6 56t22 50.5t42 37t67 14.5h87v72q0 35 -16 56t-62 21q-22 0 -45.5 -12.5t-30.5 -41.5zM176 238 q-38 0 -64.5 -22.5t-26.5 -78.5q0 -38 17.5 -61.5t59.5 -23.5q40 0 63.5 22t23.5 64v100h-73zM177 647l-113 -95l-27 22l123 131h39l117 -129l-27 -24z" />
<glyph unicode="&#xe3;" horiz-adv-x="352" d="M37 405q13 43 48 68t89 25q65 0 100.5 -29.5t35.5 -103.5v-365h-62v44h-1q-22 -31 -49.5 -40.5t-58.5 -9.5q-32 0 -53.5 12t-35 31.5t-19.5 44.5t-6 52q0 28 6 56t22 50.5t42 37t67 14.5h87v72q0 35 -16 56t-62 21q-22 0 -45.5 -12.5t-30.5 -41.5zM176 238 q-38 0 -64.5 -22.5t-26.5 -78.5q0 -38 17.5 -61.5t59.5 -23.5q40 0 63.5 22t23.5 64v100h-73zM318 644q-16 -33 -38.5 -50.5t-43.5 -17.5q-15 0 -29.5 6t-28.5 12.5t-27 12.5t-25 6q-26 0 -50 -35l-33 20q12 25 33.5 45.5t46.5 20.5q15 0 28 -6t26.5 -13t27.5 -13t30 -6 q25 0 51 39z" />
<glyph unicode="&#xe4;" horiz-adv-x="352" d="M37 405q13 43 48 68t89 25q65 0 100.5 -29.5t35.5 -103.5v-365h-62v44h-1q-22 -31 -49.5 -40.5t-58.5 -9.5q-32 0 -53.5 12t-35 31.5t-19.5 44.5t-6 52q0 28 6 56t22 50.5t42 37t67 14.5h87v72q0 35 -16 56t-62 21q-22 0 -45.5 -12.5t-30.5 -41.5zM176 238 q-38 0 -64.5 -22.5t-26.5 -78.5q0 -38 17.5 -61.5t59.5 -23.5q40 0 63.5 22t23.5 64v100h-73zM74 587v64h56v-64h-56zM225 587v64h55v-64h-55z" />
<glyph unicode="&#xe5;" horiz-adv-x="352" d="M37 405q13 43 48 68t89 25q65 0 100.5 -29.5t35.5 -103.5v-365h-62v44h-1q-22 -31 -49.5 -40.5t-58.5 -9.5q-32 0 -53.5 12t-35 31.5t-19.5 44.5t-6 52q0 28 6 56t22 50.5t42 37t67 14.5h87v72q0 35 -16 56t-62 21q-22 0 -45.5 -12.5t-30.5 -41.5zM176 238 q-38 0 -64.5 -22.5t-26.5 -78.5q0 -38 17.5 -61.5t59.5 -23.5q40 0 63.5 22t23.5 64v100h-73zM186 546q-36 0 -61 25t-25 61t25 61t61 25q35 0 60 -25t25 -61t-25 -61t-60 -25zM186 682q-21 0 -36 -15t-15 -36t15 -36t36 -15q20 0 35 15t15 36t-15 36t-35 15z" />
<glyph unicode="&#xe6;" horiz-adv-x="559" d="M389 -7q-45 0 -74.5 17t-45.5 44q-15 -20 -31 -32t-31.5 -18t-29.5 -8t-26 -2q-38 0 -62.5 12t-39 32t-20.5 45t-6 52q0 28 7 55.5t23 50t42 36.5t64 14h87v73q0 35 -17.5 56t-60.5 21q-27 0 -47.5 -14t-27.5 -40l-58 18q12 43 48.5 68.5t87.5 25.5q45 0 71 -13t38 -36 q37 49 115 49q69 0 103.5 -37.5t34.5 -106.5v-117h-222v-29.5t0.5 -38t1.5 -35.5t3 -22q5 -28 24.5 -45.5t52.5 -17.5q37 0 55.5 23t21.5 54l61 -14q-8 -54 -41 -87t-101 -33zM246 239h-72q-38 0 -64.5 -23t-26.5 -78q0 -35 19 -60t63 -25q36 0 58.5 22.5t22.5 63.5v100z M471 290v54q0 41 -17.5 69t-62.5 28q-59 0 -73 -60q-2 -5 -3 -15.5t-2 -23.5t-1.5 -27t-0.5 -25h160z" />
<glyph unicode="&#xe7;" horiz-adv-x="332" d="M178 498q69 0 101 -36t32 -101l-63 -9v1q4 39 -16.5 64.5t-56.5 25.5q-23 0 -41.5 -11t-28.5 -36q-8 -19 -9.5 -63t-2.5 -104q1 -39 2 -75t6 -54q8 -24 26 -38t47 -14q36 0 55.5 22t18.5 67l63 -11q-3 -123 -121 -132l-13 -53q23 -2 38 -9.5t24 -18t12.5 -23t3.5 -22.5 q0 -12 -4.5 -25t-14 -23.5t-24.5 -17.5t-37 -7q-11 0 -33.5 2.5t-43.5 13.5l11 30q17 -8 31.5 -10t26.5 -2q18 0 30.5 9.5t12.5 28.5q0 20 -13.5 31.5t-43.5 10.5l-16 13l20 72q-54 4 -80.5 30.5t-34.5 59.5q-3 12 -5 30.5t-2.5 40t-1 43.5t-0.5 42q0 26 0.5 53t2.5 51 t4.5 43.5t7.5 31.5q13 36 44.5 57.5t85.5 21.5z" />
<glyph unicode="&#xe8;" horiz-adv-x="350" d="M178 498q60 0 93.5 -29.5t39.5 -83.5q1 -11 1.5 -22t0.5 -22v-110h-220q0 -10 0.5 -19t0.5 -19q0 -26 1.5 -53t6.5 -41q16 -50 72 -50q38 0 56 22.5t20 59.5l62 -12q-5 -61 -40.5 -93.5t-100.5 -32.5q-31 0 -53.5 8t-38 20.5t-25 29t-13.5 33.5q-3 12 -5 30.5t-2.5 40 t-1 43.5t-0.5 42q0 26 0.5 52t2.5 50t4.5 43.5t7.5 32.5q14 37 45 58.5t86 21.5zM104 395q-6 -16 -7.5 -44.5t-2.5 -69.5h158v52q0 21 -2.5 40.5t-11 34.5t-23.5 24t-40 9q-22 0 -41 -10t-30 -36zM178 556l-92 152l58 21l68 -159z" />
<glyph unicode="&#xe9;" horiz-adv-x="350" d="M178 498q60 0 93.5 -29.5t39.5 -83.5q1 -11 1.5 -22t0.5 -22v-110h-220q0 -10 0.5 -19t0.5 -19q0 -26 1.5 -53t6.5 -41q16 -50 72 -50q38 0 56 22.5t20 59.5l62 -12q-5 -61 -40.5 -93.5t-100.5 -32.5q-31 0 -53.5 8t-38 20.5t-25 29t-13.5 33.5q-3 12 -5 30.5t-2.5 40 t-1 43.5t-0.5 42q0 26 0.5 52t2.5 50t4.5 43.5t7.5 32.5q14 37 45 58.5t86 21.5zM104 395q-6 -16 -7.5 -44.5t-2.5 -69.5h158v52q0 21 -2.5 40.5t-11 34.5t-23.5 24t-40 9q-22 0 -41 -10t-30 -36zM147 570l67 159l59 -21l-92 -152z" />
<glyph unicode="&#xea;" horiz-adv-x="350" d="M178 498q60 0 93.5 -29.5t39.5 -83.5q1 -11 1.5 -22t0.5 -22v-110h-220q0 -10 0.5 -19t0.5 -19q0 -26 1.5 -53t6.5 -41q16 -50 72 -50q38 0 56 22.5t20 59.5l62 -12q-5 -61 -40.5 -93.5t-100.5 -32.5q-31 0 -53.5 8t-38 20.5t-25 29t-13.5 33.5q-3 12 -5 30.5t-2.5 40 t-1 43.5t-0.5 42q0 26 0.5 52t2.5 50t4.5 43.5t7.5 32.5q14 37 45 58.5t86 21.5zM104 395q-6 -16 -7.5 -44.5t-2.5 -69.5h158v52q0 21 -2.5 40.5t-11 34.5t-23.5 24t-40 9q-22 0 -41 -10t-30 -36zM176 647l-113 -95l-27 22l123 131h39l117 -129l-27 -24z" />
<glyph unicode="&#xeb;" horiz-adv-x="350" d="M178 498q60 0 93.5 -29.5t39.5 -83.5q1 -11 1.5 -22t0.5 -22v-110h-220q0 -10 0.5 -19t0.5 -19q0 -26 1.5 -53t6.5 -41q16 -50 72 -50q38 0 56 22.5t20 59.5l62 -12q-5 -61 -40.5 -93.5t-100.5 -32.5q-31 0 -53.5 8t-38 20.5t-25 29t-13.5 33.5q-3 12 -5 30.5t-2.5 40 t-1 43.5t-0.5 42q0 26 0.5 52t2.5 50t4.5 43.5t7.5 32.5q14 37 45 58.5t86 21.5zM104 395q-6 -16 -7.5 -44.5t-2.5 -69.5h158v52q0 21 -2.5 40.5t-11 34.5t-23.5 24t-40 9q-22 0 -41 -10t-30 -36zM70 587v64h56v-64h-56zM221 587v64h55v-64h-55z" />
<glyph unicode="&#xec;" horiz-adv-x="174" d="M60 0v492h62v-492h-62zM78 556l-92 152l58 21l68 -159z" />
<glyph unicode="&#xed;" horiz-adv-x="172" d="M49 0v492h62v-492h-62zM59 570l67 159l59 -21l-92 -152z" />
<glyph unicode="&#xee;" horiz-adv-x="239" d="M86 0v492h62v-492h-62zM120 647l-113 -95l-27 22l123 131h39l117 -129l-27 -24z" />
<glyph unicode="&#xef;" horiz-adv-x="166" d="M53 0v492h62v-492h-62zM131 587v64h55v-64h-55zM-20 587v64h56v-64h-56z" />
<glyph unicode="&#xf0;" horiz-adv-x="362" d="M171 478q8 0 20.5 -2t26 -7t26 -14t21.5 -23h1v27.5t-1 27.5q0 26 -4 50t-12 44l-70 -50l-21 31l73 52q-3 5 -6.5 8.5l-8.5 8.5q-19 20 -49 32.5t-62 17.5l6 50q51 -5 85.5 -19.5t53.5 -31.5q17 -15 29 -32l61 44l22 -29l-64 -46q17 -30 21.5 -112.5t4.5 -222.5 q0 -47 -2 -93t-4 -72q-4 -38 -18.5 -62t-34.5 -37.5t-44.5 -19t-47.5 -5.5q-30 0 -52.5 7.5t-38 20t-25.5 29.5t-15 36q-3 11 -4.5 28.5t-2.5 38.5t-1.5 43t-0.5 42q2 64 5 101t11 59q13 34 43.5 56t78.5 24zM180 423q-25 0 -44.5 -11.5t-30.5 -37.5q-6 -17 -8 -42.5 t-3 -73.5v-39q0 -41 1 -72t7 -48q8 -25 26.5 -38.5t50.5 -13.5q27 0 47 15.5t28 41.5q5 14 7 51t2 79v67q0 20 -2 37t-5 29q-8 26 -26 41t-50 15z" />
<glyph unicode="&#xf1;" horiz-adv-x="362" d="M100 440h2q17 28 44.5 43t60.5 15q31 0 52.5 -10t35.5 -27t20.5 -41t6.5 -52v-368h-63v350q0 38 -16 62t-58 24q-41 0 -63.5 -27.5t-22.5 -66.5v-342h-61v492h62v-52zM308 644q-16 -33 -38.5 -50.5t-43.5 -17.5q-15 0 -29.5 6t-28.5 12.5t-27 12.5t-25 6q-26 0 -50 -35 l-33 20q12 25 33.5 45.5t46.5 20.5q15 0 28 -6t26.5 -13t27.5 -13t30 -6q25 0 51 39z" />
<glyph unicode="&#xf2;" horiz-adv-x="356" d="M180 498q56 0 86.5 -22t42.5 -55q9 -26 11.5 -66t2.5 -80v-49q0 -27 -1 -53.5t-4 -56.5q-4 -37 -18.5 -61t-35 -37.5t-44.5 -19t-47 -5.5q-61 0 -91 26.5t-40 64.5q-3 12 -5 30.5t-3 40t-1 43.5v42q0 26 0.5 52.5t2.5 50.5t4.5 43.5t7.5 31.5q13 36 45.5 58t86.5 22z M179 443q-23 0 -43 -10t-31 -36q-7 -18 -9 -55t-2 -88v-32q0 -41 1 -73t7 -49q15 -51 77 -51q29 0 49.5 17t27.5 46q3 18 5 53t2 73q0 21 -0.5 44t-1 44t-2.5 38t-5 26q-8 26 -28 39.5t-47 13.5zM168 556l-92 152l58 21l68 -159z" />
<glyph unicode="&#xf3;" horiz-adv-x="356" d="M180 498q56 0 86.5 -22t42.5 -55q9 -26 11.5 -66t2.5 -80v-49q0 -27 -1 -53.5t-4 -56.5q-4 -37 -18.5 -61t-35 -37.5t-44.5 -19t-47 -5.5q-61 0 -91 26.5t-40 64.5q-3 12 -5 30.5t-3 40t-1 43.5v42q0 26 0.5 52.5t2.5 50.5t4.5 43.5t7.5 31.5q13 36 45.5 58t86.5 22z M179 443q-23 0 -43 -10t-31 -36q-7 -18 -9 -55t-2 -88v-32q0 -41 1 -73t7 -49q15 -51 77 -51q29 0 49.5 17t27.5 46q3 18 5 53t2 73q0 21 -0.5 44t-1 44t-2.5 38t-5 26q-8 26 -28 39.5t-47 13.5zM141 570l67 159l59 -21l-92 -152z" />
<glyph unicode="&#xf4;" horiz-adv-x="356" d="M180 498q56 0 86.5 -22t42.5 -55q9 -26 11.5 -66t2.5 -80v-49q0 -27 -1 -53.5t-4 -56.5q-4 -37 -18.5 -61t-35 -37.5t-44.5 -19t-47 -5.5q-61 0 -91 26.5t-40 64.5q-3 12 -5 30.5t-3 40t-1 43.5v42q0 26 0.5 52.5t2.5 50.5t4.5 43.5t7.5 31.5q13 36 45.5 58t86.5 22z M179 443q-23 0 -43 -10t-31 -36q-7 -18 -9 -55t-2 -88v-32q0 -41 1 -73t7 -49q15 -51 77 -51q29 0 49.5 17t27.5 46q3 18 5 53t2 73q0 21 -0.5 44t-1 44t-2.5 38t-5 26q-8 26 -28 39.5t-47 13.5zM180 647l-113 -95l-27 22l123 131h39l117 -129l-27 -24z" />
<glyph unicode="&#xf5;" horiz-adv-x="356" d="M180 498q56 0 86.5 -22t42.5 -55q9 -26 11.5 -66t2.5 -80v-49q0 -27 -1 -53.5t-4 -56.5q-4 -37 -18.5 -61t-35 -37.5t-44.5 -19t-47 -5.5q-61 0 -91 26.5t-40 64.5q-3 12 -5 30.5t-3 40t-1 43.5v42q0 26 0.5 52.5t2.5 50.5t4.5 43.5t7.5 31.5q13 36 45.5 58t86.5 22z M179 443q-23 0 -43 -10t-31 -36q-7 -18 -9 -55t-2 -88v-32q0 -41 1 -73t7 -49q15 -51 77 -51q29 0 49.5 17t27.5 46q3 18 5 53t2 73q0 21 -0.5 44t-1 44t-2.5 38t-5 26q-8 26 -28 39.5t-47 13.5zM317 644q-16 -33 -38.5 -50.5t-43.5 -17.5q-15 0 -29.5 6t-28.5 12.5 t-27 12.5t-25 6q-26 0 -50 -35l-33 20q12 25 33.5 45.5t46.5 20.5q15 0 28 -6t26.5 -13t27.5 -13t30 -6q25 0 51 39z" />
<glyph unicode="&#xf6;" horiz-adv-x="356" d="M180 498q56 0 86.5 -22t42.5 -55q9 -26 11.5 -66t2.5 -80v-49q0 -27 -1 -53.5t-4 -56.5q-4 -37 -18.5 -61t-35 -37.5t-44.5 -19t-47 -5.5q-61 0 -91 26.5t-40 64.5q-3 12 -5 30.5t-3 40t-1 43.5v42q0 26 0.5 52.5t2.5 50.5t4.5 43.5t7.5 31.5q13 36 45.5 58t86.5 22z M179 443q-23 0 -43 -10t-31 -36q-7 -18 -9 -55t-2 -88v-32q0 -41 1 -73t7 -49q15 -51 77 -51q29 0 49.5 17t27.5 46q3 18 5 53t2 73q0 21 -0.5 44t-1 44t-2.5 38t-5 26q-8 26 -28 39.5t-47 13.5zM72 587v64h56v-64h-56zM223 587v64h55v-64h-55z" />
<glyph unicode="&#xf7;" horiz-adv-x="367" d="M228 447q0 -19 -13 -32t-31 -13t-31 13t-13 32q0 18 13 31t31 13t31 -13t13 -31zM12 269v50h341v-50h-341zM184 182q18 0 31 -13t13 -32q0 -18 -13 -31.5t-31 -13.5t-31 13.5t-13 31.5q0 19 13 32t31 13z" />
<glyph unicode="&#xf8;" horiz-adv-x="356" d="M180 498q31 0 54 -7.5t39 -20.5l17 32l29 -16l-22 -42q7 -10 12 -23q9 -26 11.5 -66t2.5 -80v-49q0 -27 -1 -53.5t-4 -56.5q-4 -37 -18.5 -61t-35 -37.5t-44.5 -19t-47 -5.5q-32 0 -55 7.5t-39 21.5q-5 -8 -9 -16l-8 -16l-26 15l21 42q-10 16 -15 37q-3 12 -5 30.5t-3 40 t-1 43.5v42q0 26 0.5 52.5t2.5 50.5t4.5 43.5t7.5 31.5q13 36 45.5 58t86.5 22zM110 81q20 -32 69 -32q29 0 49.5 17t27.5 46q3 18 5 53t2 73q0 33 -1 69t-4 61zM179 443q-23 0 -43 -10t-31 -36q-7 -18 -9 -55t-2 -88v-32v-54t2 -44l147 288q-22 31 -64 31z" />
<glyph unicode="&#xf9;" horiz-adv-x="364" d="M261 52h-3q-17 -28 -44 -42.5t-60 -14.5q-31 0 -52.5 9.5t-35.5 27t-20.5 41t-6.5 51.5v369h63v-351q0 -42 16.5 -65t58.5 -23q38 0 61.5 27.5t23.5 66.5v345h61v-492h-62v51zM175 556l-92 152l58 21l68 -159z" />
<glyph unicode="&#xfa;" horiz-adv-x="364" d="M261 52h-3q-17 -28 -44 -42.5t-60 -14.5q-31 0 -52.5 9.5t-35.5 27t-20.5 41t-6.5 51.5v369h63v-351q0 -42 16.5 -65t58.5 -23q38 0 61.5 27.5t23.5 66.5v345h61v-492h-62v51zM173 570l67 159l59 -21l-92 -152z" />
<glyph unicode="&#xfb;" horiz-adv-x="364" d="M261 52h-3q-17 -28 -44 -42.5t-60 -14.5q-31 0 -52.5 9.5t-35.5 27t-20.5 41t-6.5 51.5v369h63v-351q0 -42 16.5 -65t58.5 -23q38 0 61.5 27.5t23.5 66.5v345h61v-492h-62v51zM180 647l-113 -95l-27 22l123 131h39l117 -129l-27 -24z" />
<glyph unicode="&#xfc;" horiz-adv-x="364" d="M261 52h-3q-17 -28 -44 -42.5t-60 -14.5q-31 0 -52.5 9.5t-35.5 27t-20.5 41t-6.5 51.5v369h63v-351q0 -42 16.5 -65t58.5 -23q38 0 61.5 27.5t23.5 66.5v345h61v-492h-62v51zM225 587v64h55v-64h-55zM74 587v64h56v-64h-56z" />
<glyph unicode="&#xfd;" horiz-adv-x="326" d="M167 92q11 48 22 100.5t22 100.5l48 198h62l-148 -577q-6 -22 -14.5 -42t-21.5 -35t-32 -24t-46 -9h-23v53h16q30 0 45 21t25 66l14 55l-131 492h65q14 -54 26 -107.5t25 -107.5q5 -21 11 -46.5l12 -51t11.5 -48.5t8.5 -38h3zM138 570l67 159l59 -21l-92 -152z" />
<glyph unicode="&#xfe;" horiz-adv-x="357" d="M178 439q-39 0 -61 -25.5t-22 -66.5v-199q0 -40 19.5 -67.5t61.5 -27.5q58 0 73 57q5 21 6.5 59.5t1.5 83.5q0 47 -1.5 81t-7.5 54q-8 28 -25 39.5t-45 11.5zM196 498q16 0 35.5 -4.5t36.5 -17t30.5 -36t17.5 -61.5q3 -31 3 -62v-60v-7q0 -60 -2.5 -110t-18.5 -84 q-13 -28 -38 -45t-70 -17q-37 0 -58.5 15t-34.5 33h-2v-235h-60v888h60v-246h2q17 23 38 36t61 13z" />
<glyph unicode="&#xff;" horiz-adv-x="326" d="M167 92q11 48 22 100.5t22 100.5l48 198h62l-148 -577q-6 -22 -14.5 -42t-21.5 -35t-32 -24t-46 -9h-23v53h16q30 0 45 21t25 66l14 55l-131 492h65q14 -54 26 -107.5t25 -107.5q5 -21 11 -46.5l12 -51t11.5 -48.5t8.5 -38h3zM59 587v64h56v-64h-56zM210 587v64h55v-64 h-55z" />
<glyph unicode="&#x100;" horiz-adv-x="386" d="M316 0l-37 168h-173l-36 -168h-58l150 696h62l153 -696h-61zM191 594l-33 -168l-42 -200h152l-42 202l-32 166h-3zM81 752v52h223v-52h-223z" />
<glyph unicode="&#x101;" horiz-adv-x="352" d="M37 405q13 43 48 68t89 25q65 0 100.5 -29.5t35.5 -103.5v-365h-62v44h-1q-22 -31 -49.5 -40.5t-58.5 -9.5q-32 0 -53.5 12t-35 31.5t-19.5 44.5t-6 52q0 28 6 56t22 50.5t42 37t67 14.5h87v72q0 35 -16 56t-62 21q-22 0 -45.5 -12.5t-30.5 -41.5zM176 238 q-38 0 -64.5 -22.5t-26.5 -78.5q0 -38 17.5 -61.5t59.5 -23.5q40 0 63.5 22t23.5 64v100h-73zM70 588v54h223v-54h-223z" />
<glyph unicode="&#x102;" horiz-adv-x="386" d="M316 0l-37 168h-173l-36 -168h-58l150 696h62l153 -696h-61zM191 594l-33 -168l-42 -200h152l-42 202l-32 166h-3zM118 862q3 -26 24 -48t51 -22q32 0 52.5 21.5t22.5 48.5h51q-2 -19 -10.5 -39.5t-24 -38t-38 -28.5t-53.5 -11q-34 0 -57.5 11t-38.5 28.5t-22 38t-8 39.5 h51z" />
<glyph unicode="&#x103;" horiz-adv-x="352" d="M37 405q13 43 48 68t89 25q65 0 100.5 -29.5t35.5 -103.5v-365h-62v44h-1q-22 -31 -49.5 -40.5t-58.5 -9.5q-32 0 -53.5 12t-35 31.5t-19.5 44.5t-6 52q0 28 6 56t22 50.5t42 37t67 14.5h87v72q0 35 -16 56t-62 21q-22 0 -45.5 -12.5t-30.5 -41.5zM176 238 q-38 0 -64.5 -22.5t-26.5 -78.5q0 -38 17.5 -61.5t59.5 -23.5q40 0 63.5 22t23.5 64v100h-73zM102 680q4 -26 24.5 -48t50.5 -22q32 0 52.5 21t23.5 49h50q-2 -19 -10 -39.5t-23.5 -38t-38.5 -28.5t-54 -11q-33 0 -56.5 11t-38.5 28.5t-22.5 38t-8.5 39.5h51z" />
<glyph unicode="&#x104;" horiz-adv-x="386" d="M281 -92q0 20 8 42.5t27 49.5l-37 168h-173l-36 -168h-58l150 696h62l153 -696h-19q-15 -23 -24 -43.5t-9 -37.5q0 -27 12 -37.5t31 -10.5q11 0 23.5 3t26.5 11l14 -39q-14 -10 -34 -16.5t-39 -6.5q-35 0 -56.5 23.5t-21.5 61.5zM191 594l-33 -168l-42 -200h152l-42 202 l-32 166h-3z" />
<glyph unicode="&#x105;" horiz-adv-x="352" d="M214 -92q0 20 7.5 42.5t26.5 49.5v44h-1q-22 -31 -49.5 -40.5t-58.5 -9.5q-32 0 -53.5 12t-35 31.5t-19.5 44.5t-6 52q0 28 6 56t22 50.5t42 37t67 14.5h87v72q0 35 -16 56t-62 21q-22 0 -45.5 -12.5t-30.5 -41.5l-58 18q13 43 48 68t89 25q65 0 100.5 -29.5t35.5 -103.5 v-365h-19q-15 -23 -24 -43.5t-9 -37.5q0 -27 12 -37.5t31 -10.5q11 0 23.5 3t26.5 11l14 -39q-14 -10 -34 -16.5t-39 -6.5q-35 0 -56.5 23.5t-21.5 61.5zM176 238q-38 0 -64.5 -22.5t-26.5 -78.5q0 -38 17.5 -61.5t59.5 -23.5q40 0 63.5 22t23.5 64v100h-73z" />
<glyph unicode="&#x106;" horiz-adv-x="384" d="M202 702q73 0 113 -40.5t40 -113.5l-62 -12q1 54 -23 81.5t-69 27.5q-26 0 -43.5 -10t-28.5 -26.5t-16 -37.5t-5 -43v-371q0 -20 5 -39.5t16 -34.5t28.5 -24t43.5 -9q41 0 66 25.5t26 83.5l63 -11q-2 -77 -43.5 -116t-110.5 -39q-76 0 -115.5 41.5t-39.5 119.5v367 q0 37 8 70t26 57.5t47.5 39t73.5 14.5zM153 751l135 109l40 -47l-152 -91z" />
<glyph unicode="&#x107;" horiz-adv-x="332" d="M178 498q69 0 101 -36t32 -101l-63 -9v1q4 39 -16.5 64.5t-56.5 25.5q-23 0 -41.5 -11t-28.5 -36q-8 -19 -9.5 -63t-2.5 -104q1 -39 2 -75t6 -54q8 -24 26 -38t47 -14q36 0 55.5 22t18.5 67l63 -11q-3 -133 -140 -133q-30 0 -52.5 7.5t-38 20.5t-25 29t-13.5 34 q-3 12 -5 30.5t-2.5 40t-1 43.5t-0.5 42q0 26 0.5 53t2.5 51t4.5 43.5t7.5 31.5q13 36 44.5 57.5t85.5 21.5zM142 570l67 159l59 -21l-92 -152z" />
<glyph unicode="&#x108;" horiz-adv-x="384" d="M202 702q73 0 113 -40.5t40 -113.5l-62 -12q1 54 -23 81.5t-69 27.5q-26 0 -43.5 -10t-28.5 -26.5t-16 -37.5t-5 -43v-371q0 -20 5 -39.5t16 -34.5t28.5 -24t43.5 -9q41 0 66 25.5t26 83.5l63 -11q-2 -77 -43.5 -116t-110.5 -39q-76 0 -115.5 41.5t-39.5 119.5v367 q0 37 8 70t26 57.5t47.5 39t73.5 14.5zM204 806l-113 -76l-27 23l123 111h40l116 -109l-26 -24z" />
<glyph unicode="&#x109;" horiz-adv-x="332" d="M178 498q69 0 101 -36t32 -101l-63 -9v1q4 39 -16.5 64.5t-56.5 25.5q-23 0 -41.5 -11t-28.5 -36q-8 -19 -9.5 -63t-2.5 -104q1 -39 2 -75t6 -54q8 -24 26 -38t47 -14q36 0 55.5 22t18.5 67l63 -11q-3 -133 -140 -133q-30 0 -52.5 7.5t-38 20.5t-25 29t-13.5 34 q-3 12 -5 30.5t-2.5 40t-1 43.5t-0.5 42q0 26 0.5 53t2.5 51t4.5 43.5t7.5 31.5q13 36 44.5 57.5t85.5 21.5zM178 647l-113 -95l-27 22l123 131h39l117 -129l-27 -24z" />
<glyph unicode="&#x10a;" horiz-adv-x="384" d="M202 702q73 0 113 -40.5t40 -113.5l-62 -12q1 54 -23 81.5t-69 27.5q-26 0 -43.5 -10t-28.5 -26.5t-16 -37.5t-5 -43v-371q0 -20 5 -39.5t16 -34.5t28.5 -24t43.5 -9q41 0 66 25.5t26 83.5l63 -11q-2 -77 -43.5 -116t-110.5 -39q-76 0 -115.5 41.5t-39.5 119.5v367 q0 37 8 70t26 57.5t47.5 39t73.5 14.5zM176 752v64h55v-64h-55z" />
<glyph unicode="&#x10b;" horiz-adv-x="332" d="M178 498q69 0 101 -36t32 -101l-63 -9v1q4 39 -16.5 64.5t-56.5 25.5q-23 0 -41.5 -11t-28.5 -36q-8 -19 -9.5 -63t-2.5 -104q1 -39 2 -75t6 -54q8 -24 26 -38t47 -14q36 0 55.5 22t18.5 67l63 -11q-3 -133 -140 -133q-30 0 -52.5 7.5t-38 20.5t-25 29t-13.5 34 q-3 12 -5 30.5t-2.5 40t-1 43.5t-0.5 42q0 26 0.5 53t2.5 51t4.5 43.5t7.5 31.5q13 36 44.5 57.5t85.5 21.5zM152 596v64h55v-64h-55z" />
<glyph unicode="&#x10c;" horiz-adv-x="384" d="M202 702q73 0 113 -40.5t40 -113.5l-62 -12q1 54 -23 81.5t-69 27.5q-26 0 -43.5 -10t-28.5 -26.5t-16 -37.5t-5 -43v-371q0 -20 5 -39.5t16 -34.5t28.5 -24t43.5 -9q41 0 66 25.5t26 83.5l63 -11q-2 -77 -43.5 -116t-110.5 -39q-76 0 -115.5 41.5t-39.5 119.5v367 q0 37 8 70t26 57.5t47.5 39t73.5 14.5zM315 864l27 -24l-117 -109h-39l-123 111l27 22l113 -75z" />
<glyph unicode="&#x10d;" horiz-adv-x="332" d="M178 498q69 0 101 -36t32 -101l-63 -9v1q4 39 -16.5 64.5t-56.5 25.5q-23 0 -41.5 -11t-28.5 -36q-8 -19 -9.5 -63t-2.5 -104q1 -39 2 -75t6 -54q8 -24 26 -38t47 -14q36 0 55.5 22t18.5 67l63 -11q-3 -133 -140 -133q-30 0 -52.5 7.5t-38 20.5t-25 29t-13.5 34 q-3 12 -5 30.5t-2.5 40t-1 43.5t-0.5 42q0 26 0.5 53t2.5 51t4.5 43.5t7.5 31.5q13 36 44.5 57.5t85.5 21.5zM292 705l26 -24l-116 -128h-40l-123 130l27 22l113 -95z" />
<glyph unicode="&#x10e;" horiz-adv-x="414" d="M209 696q63 0 98.5 -21.5t49.5 -72.5q11 -41 11 -103.5v-149.5v-148.5t-12 -100.5q-9 -30 -25 -49t-36 -30.5t-44 -16t-51 -4.5h-147v696h156zM305 520q0 27 -5 49t-17 37.5t-32 24.5t-50 9h-87v-584h88q54 0 78.5 30t24.5 90v344zM305 864l27 -24l-117 -109h-39 l-123 111l27 22l113 -75z" />
<glyph unicode="&#x10f;" horiz-adv-x="448" d="M155 -6q-16 0 -35.5 4t-36.5 16.5t-30.5 36t-17.5 61.5q-3 31 -3.5 62t-0.5 60q0 60 2 107.5t14 80.5t38 54.5t76 21.5q35 0 58 -15t34 -34h2v277h61v-726h-61v42h-2q-16 -23 -37.5 -35.5t-60.5 -12.5zM173 52q39 0 61 25.5t22 66.5v199q0 40 -20 67.5t-62 27.5 q-27 0 -45.5 -14t-26.5 -43q-5 -21 -7 -59.5t-2 -83.5q0 -47 1.5 -81t7.5 -54q8 -28 25.5 -39.5t45.5 -11.5zM405 563h-35q6 22 11.5 43.5t10.5 43.5h-17v76h69v-75z" />
<glyph unicode="&#x110;" horiz-adv-x="414" d="M6 390h47v306h156q63 0 98.5 -21.5t49.5 -72.5q11 -41 11 -103.5v-149.5v-148.5t-12 -100.5q-9 -30 -25 -49t-36 -30.5t-44 -16t-51 -4.5h-147v343h-47v47zM305 520q0 27 -5 49t-17 37.5t-32 24.5t-50 9h-87v-250h89v-47h-89v-287h88q54 0 78.5 30t24.5 90v344z" />
<glyph unicode="&#x111;" horiz-adv-x="359" d="M180 630h75v96h61v-96h44v-46h-44v-584h-61v42h-2q-16 -23 -37.5 -35.5t-60.5 -12.5q-16 0 -35.5 4t-36.5 16.5t-30.5 36t-17.5 61.5q-3 31 -3.5 62t-0.5 60q0 60 2 107.5t14 80.5t38 54.5t76 21.5q35 0 58 -15t34 -34h2v135h-75v46zM173 52q39 0 61 25.5t22 66.5v199 q0 40 -20 67.5t-62 27.5q-27 0 -45.5 -14t-26.5 -43q-5 -21 -7 -59.5t-2 -83.5q0 -47 1.5 -81t7.5 -54q8 -28 25.5 -39.5t45.5 -11.5z" />
<glyph unicode="&#x112;" horiz-adv-x="361" d="M53 0v696h291v-57h-230v-255h201v-57h-201v-271h230v-56h-291zM83 752v52h223v-52h-223z" />
<glyph unicode="&#x113;" horiz-adv-x="350" d="M178 498q60 0 93.5 -29.5t39.5 -83.5q1 -11 1.5 -22t0.5 -22v-110h-220q0 -10 0.5 -19t0.5 -19q0 -26 1.5 -53t6.5 -41q16 -50 72 -50q38 0 56 22.5t20 59.5l62 -12q-5 -61 -40.5 -93.5t-100.5 -32.5q-31 0 -53.5 8t-38 20.5t-25 29t-13.5 33.5q-3 12 -5 30.5t-2.5 40 t-1 43.5t-0.5 42q0 26 0.5 52t2.5 50t4.5 43.5t7.5 32.5q14 37 45 58.5t86 21.5zM104 395q-6 -16 -7.5 -44.5t-2.5 -69.5h158v52q0 21 -2.5 40.5t-11 34.5t-23.5 24t-40 9q-22 0 -41 -10t-30 -36zM74 588v54h223v-54h-223z" />
<glyph unicode="&#x114;" horiz-adv-x="361" d="M53 0v696h291v-57h-230v-255h201v-57h-201v-271h230v-56h-291zM122 862q3 -26 24 -48t51 -22q32 0 52.5 21.5t22.5 48.5h51q-2 -19 -10.5 -39.5t-24 -38t-38 -28.5t-53.5 -11q-34 0 -57.5 11t-38.5 28.5t-22 38t-8 39.5h51z" />
<glyph unicode="&#x115;" horiz-adv-x="350" d="M178 498q60 0 93.5 -29.5t39.5 -83.5q1 -11 1.5 -22t0.5 -22v-110h-220q0 -10 0.5 -19t0.5 -19q0 -26 1.5 -53t6.5 -41q16 -50 72 -50q38 0 56 22.5t20 59.5l62 -12q-5 -61 -40.5 -93.5t-100.5 -32.5q-31 0 -53.5 8t-38 20.5t-25 29t-13.5 33.5q-3 12 -5 30.5t-2.5 40 t-1 43.5t-0.5 42q0 26 0.5 52t2.5 50t4.5 43.5t7.5 32.5q14 37 45 58.5t86 21.5zM104 395q-6 -16 -7.5 -44.5t-2.5 -69.5h158v52q0 21 -2.5 40.5t-11 34.5t-23.5 24t-40 9q-22 0 -41 -10t-30 -36zM101 680q4 -26 24.5 -48t50.5 -22q32 0 52.5 21t23.5 49h50 q-2 -19 -10 -39.5t-23.5 -38t-38.5 -28.5t-54 -11q-33 0 -56.5 11t-38.5 28.5t-22.5 38t-8.5 39.5h51z" />
<glyph unicode="&#x116;" horiz-adv-x="361" d="M53 0v696h291v-57h-230v-255h201v-57h-201v-271h230v-56h-291zM173 766v64h55v-64h-55z" />
<glyph unicode="&#x117;" horiz-adv-x="350" d="M178 498q60 0 93.5 -29.5t39.5 -83.5q1 -11 1.5 -22t0.5 -22v-110h-220q0 -10 0.5 -19t0.5 -19q0 -26 1.5 -53t6.5 -41q16 -50 72 -50q38 0 56 22.5t20 59.5l62 -12q-5 -61 -40.5 -93.5t-100.5 -32.5q-31 0 -53.5 8t-38 20.5t-25 29t-13.5 33.5q-3 12 -5 30.5t-2.5 40 t-1 43.5t-0.5 42q0 26 0.5 52t2.5 50t4.5 43.5t7.5 32.5q14 37 45 58.5t86 21.5zM104 395q-6 -16 -7.5 -44.5t-2.5 -69.5h158v52q0 21 -2.5 40.5t-11 34.5t-23.5 24t-40 9q-22 0 -41 -10t-30 -36zM153 596v64h55v-64h-55z" />
<glyph unicode="&#x118;" horiz-adv-x="361" d="M266 -92q0 20 7.5 42.5t26.5 49.5h-247v696h291v-57h-230v-255h201v-57h-201v-271h230v-56h-1q-15 -23 -24 -43.5t-9 -37.5q0 -27 12 -37.5t31 -10.5q11 0 23.5 3t26.5 11l14 -39q-14 -10 -34 -16.5t-39 -6.5q-35 0 -56.5 23.5t-21.5 61.5z" />
<glyph unicode="&#x119;" horiz-adv-x="350" d="M195 -65q0 29 16 62q-9 -2 -19 -3t-21 -1q-31 0 -53.5 8t-38 20.5t-25 29t-13.5 33.5q-3 12 -5 30.5t-2.5 40t-1 43.5t-0.5 42q0 26 0.5 52t2.5 50t4.5 43.5t7.5 32.5q14 37 45 58.5t86 21.5q60 0 93.5 -29.5t39.5 -83.5q1 -11 1.5 -22t0.5 -22v-110h-220q0 -10 0.5 -19 t0.5 -19q0 -26 1.5 -53t6.5 -41q16 -50 72 -50q38 0 56 22.5t20 59.5l62 -12q-5 -64 -42 -95q-14 -22 -22.5 -41.5t-8.5 -36.5q0 -27 12 -37.5t31 -10.5q11 0 23.5 3t26.5 11l14 -39q-14 -10 -34 -16.5t-39 -6.5q-35 0 -56.5 23.5t-21.5 61.5zM104 395q-6 -16 -7.5 -44.5 t-2.5 -69.5h158v52q0 21 -2.5 40.5t-11 34.5t-23.5 24t-40 9q-22 0 -41 -10t-30 -36z" />
<glyph unicode="&#x11a;" horiz-adv-x="361" d="M53 0v696h291v-57h-230v-255h201v-57h-201v-271h230v-56h-291zM307 864l27 -24l-117 -109h-39l-123 111l27 22l113 -75z" />
<glyph unicode="&#x11b;" horiz-adv-x="350" d="M178 498q60 0 93.5 -29.5t39.5 -83.5q1 -11 1.5 -22t0.5 -22v-110h-220q0 -10 0.5 -19t0.5 -19q0 -26 1.5 -53t6.5 -41q16 -50 72 -50q38 0 56 22.5t20 59.5l62 -12q-5 -61 -40.5 -93.5t-100.5 -32.5q-31 0 -53.5 8t-38 20.5t-25 29t-13.5 33.5q-3 12 -5 30.5t-2.5 40 t-1 43.5t-0.5 42q0 26 0.5 52t2.5 50t4.5 43.5t7.5 32.5q14 37 45 58.5t86 21.5zM104 395q-6 -16 -7.5 -44.5t-2.5 -69.5h158v52q0 21 -2.5 40.5t-11 34.5t-23.5 24t-40 9q-22 0 -41 -10t-30 -36zM292 705l26 -24l-116 -128h-40l-123 130l27 22l113 -95z" />
<glyph unicode="&#x11c;" horiz-adv-x="405" d="M203 -7q-75 0 -115 41t-40 119v363q0 40 7.5 74t25.5 59t48 39t74 14q73 0 112 -38.5t41 -112.5l-61 -15v1q0 55 -24.5 81.5t-68.5 26.5q-26 0 -43.5 -10t-28.5 -26.5t-16 -37.5t-5 -43v-372q0 -20 5 -39.5t16 -34.5t28.5 -24t43.5 -9h1q42 0 70 24.5t28 67.5v173h-84v54 h145v-221q0 -38 -12.5 -66.5t-34.5 -48t-50.5 -29.5t-61.5 -10zM205 806l-113 -76l-27 23l123 111h40l116 -109l-26 -24z" />
<glyph unicode="&#x11d;" horiz-adv-x="363" d="M158 498q40 0 61 -13t38 -36h2v42h60v-525q0 -34 -6 -64t-21.5 -52.5t-43.5 -36t-71 -13.5q-60 0 -95.5 31.5t-37.5 91.5l61 11q1 -35 19 -56.5t57 -21.5t58.5 27t19.5 63v106h-2q-16 -29 -45.5 -43t-57.5 -14q-45 0 -69 18t-36 47q-11 27 -13.5 65.5t-2.5 80.5v48 q0 30 0.5 60.5t3.5 64.5q4 38 17.5 61.5t31.5 36t37.5 17t34.5 4.5zM176 439q-26 0 -44.5 -11.5t-27.5 -39.5q-6 -20 -7.5 -54t-1.5 -81q0 -52 1.5 -95t10.5 -64q16 -41 68 -41q24 0 40 10t26 26t14 36t4 40v182q0 41 -22 66.5t-61 25.5zM178 647l-113 -95l-27 22l123 131 h39l117 -129l-27 -24z" />
<glyph unicode="&#x11e;" horiz-adv-x="405" d="M203 -7q-75 0 -115 41t-40 119v363q0 40 7.5 74t25.5 59t48 39t74 14q73 0 112 -38.5t41 -112.5l-61 -15v1q0 55 -24.5 81.5t-68.5 26.5q-26 0 -43.5 -10t-28.5 -26.5t-16 -37.5t-5 -43v-372q0 -20 5 -39.5t16 -34.5t28.5 -24t43.5 -9h1q42 0 70 24.5t28 67.5v173h-84v54 h145v-221q0 -38 -12.5 -66.5t-34.5 -48t-50.5 -29.5t-61.5 -10zM129 862q3 -26 24 -48t51 -22q32 0 52.5 21.5t22.5 48.5h51q-2 -19 -10.5 -39.5t-24 -38t-38 -28.5t-53.5 -11q-34 0 -57.5 11t-38.5 28.5t-22 38t-8 39.5h51z" />
<glyph unicode="&#x11f;" horiz-adv-x="363" d="M158 498q40 0 61 -13t38 -36h2v42h60v-525q0 -34 -6 -64t-21.5 -52.5t-43.5 -36t-71 -13.5q-60 0 -95.5 31.5t-37.5 91.5l61 11q1 -35 19 -56.5t57 -21.5t58.5 27t19.5 63v106h-2q-16 -29 -45.5 -43t-57.5 -14q-45 0 -69 18t-36 47q-11 27 -13.5 65.5t-2.5 80.5v48 q0 30 0.5 60.5t3.5 64.5q4 38 17.5 61.5t31.5 36t37.5 17t34.5 4.5zM176 439q-26 0 -44.5 -11.5t-27.5 -39.5q-6 -20 -7.5 -54t-1.5 -81q0 -52 1.5 -95t10.5 -64q16 -41 68 -41q24 0 40 10t26 26t14 36t4 40v182q0 41 -22 66.5t-61 25.5zM105 680q4 -26 24.5 -48t50.5 -22 q32 0 52.5 21t23.5 49h50q-2 -19 -10 -39.5t-23.5 -38t-38.5 -28.5t-54 -11q-33 0 -56.5 11t-38.5 28.5t-22.5 38t-8.5 39.5h51z" />
<glyph unicode="&#x120;" horiz-adv-x="405" d="M203 -7q-75 0 -115 41t-40 119v363q0 40 7.5 74t25.5 59t48 39t74 14q73 0 112 -38.5t41 -112.5l-61 -15v1q0 55 -24.5 81.5t-68.5 26.5q-26 0 -43.5 -10t-28.5 -26.5t-16 -37.5t-5 -43v-372q0 -20 5 -39.5t16 -34.5t28.5 -24t43.5 -9h1q42 0 70 24.5t28 67.5v173h-84v54 h145v-221q0 -38 -12.5 -66.5t-34.5 -48t-50.5 -29.5t-61.5 -10zM178 766v64h55v-64h-55z" />
<glyph unicode="&#x121;" horiz-adv-x="363" d="M158 498q40 0 61 -13t38 -36h2v42h60v-525q0 -34 -6 -64t-21.5 -52.5t-43.5 -36t-71 -13.5q-60 0 -95.5 31.5t-37.5 91.5l61 11q1 -35 19 -56.5t57 -21.5t58.5 27t19.5 63v106h-2q-16 -29 -45.5 -43t-57.5 -14q-45 0 -69 18t-36 47q-11 27 -13.5 65.5t-2.5 80.5v48 q0 30 0.5 60.5t3.5 64.5q4 38 17.5 61.5t31.5 36t37.5 17t34.5 4.5zM176 439q-26 0 -44.5 -11.5t-27.5 -39.5q-6 -20 -7.5 -54t-1.5 -81q0 -52 1.5 -95t10.5 -64q16 -41 68 -41q24 0 40 10t26 26t14 36t4 40v182q0 41 -22 66.5t-61 25.5zM159 596v64h55v-64h-55z" />
<glyph unicode="&#x122;" horiz-adv-x="405" d="M203 -7q-75 0 -115 41t-40 119v363q0 40 7.5 74t25.5 59t48 39t74 14q73 0 112 -38.5t41 -112.5l-61 -15v1q0 55 -24.5 81.5t-68.5 26.5q-26 0 -43.5 -10t-28.5 -26.5t-16 -37.5t-5 -43v-372q0 -20 5 -39.5t16 -34.5t28.5 -24t43.5 -9h1q42 0 70 24.5t28 67.5v173h-84v54 h145v-221q0 -38 -12.5 -66.5t-34.5 -48t-50.5 -29.5t-61.5 -10zM201 -226h-35q6 22 11.5 43.5t10.5 43.5h-17v76h69v-75z" />
<glyph unicode="&#x123;" horiz-adv-x="363" d="M158 498q40 0 61 -13t38 -36h2v42h60v-525q0 -34 -6 -64t-21.5 -52.5t-43.5 -36t-71 -13.5q-60 0 -95.5 31.5t-37.5 91.5l61 11q1 -35 19 -56.5t57 -21.5t58.5 27t19.5 63v106h-2q-16 -29 -45.5 -43t-57.5 -14q-45 0 -69 18t-36 47q-11 27 -13.5 65.5t-2.5 80.5v48 q0 30 0.5 60.5t3.5 64.5q4 38 17.5 61.5t31.5 36t37.5 17t34.5 4.5zM176 439q-26 0 -44.5 -11.5t-27.5 -39.5q-6 -20 -7.5 -54t-1.5 -81q0 -52 1.5 -95t10.5 -64q16 -41 68 -41q24 0 40 10t26 26t14 36t4 40v182q0 41 -22 66.5t-61 25.5zM200 723h35q-5 -22 -10.5 -43 t-11.5 -43h17v-77h-69v75z" />
<glyph unicode="&#x124;" horiz-adv-x="420" d="M305 0v329h-191v-329h-61v696h61v-313h191v313h62v-696h-62zM210 806l-113 -76l-27 23l123 111h40l116 -109l-26 -24z" />
<glyph unicode="&#x125;" horiz-adv-x="364" d="M102 440h2q17 28 44.5 43t60.5 15q31 0 52.5 -10t35.5 -27t20.5 -41t6.5 -52v-368h-63v350q0 38 -17.5 62t-59.5 24q-40 0 -61.5 -26.5t-21.5 -64.5v-345h-61v726h62v-286zM71 806l-113 -76l-27 23l123 111h40l116 -109l-26 -24z" />
<glyph unicode="&#x126;" horiz-adv-x="420" d="M305 0v329h-191v-329h-61v551h-47v44h47v101h61v-101h191v101h62v-101h47v-44h-47v-551h-62zM305 383v168h-191v-168h191z" />
<glyph unicode="&#x127;" horiz-adv-x="364" d="M102 625h158v-44h-158v-141h2q17 28 44.5 43t60.5 15q31 0 52.5 -10t35.5 -27t20.5 -41t6.5 -52v-368h-63v350q0 38 -17.5 62t-59.5 24q-40 0 -61.5 -26.5t-21.5 -64.5v-345h-61v581h-38v44h38v101h62v-101z" />
<glyph unicode="&#x128;" horiz-adv-x="205" d="M71 0v696h63v-696h-63zM240 807q-16 -33 -38.5 -50.5t-43.5 -17.5q-15 0 -29.5 6t-28.5 12.5t-27 12.5t-25 6q-26 0 -50 -35l-33 20q12 25 33.5 45.5t46.5 20.5q15 0 28 -6t26.5 -13t27.5 -13t30 -6q25 0 51 39z" />
<glyph unicode="&#x129;" horiz-adv-x="235" d="M88 0v492h62v-492h-62zM255 644q-16 -33 -38.5 -50.5t-43.5 -17.5q-15 0 -29.5 6t-28.5 12.5t-27 12.5t-25 6q-26 0 -50 -35l-33 20q12 25 33.5 45.5t46.5 20.5q15 0 28 -6t26.5 -13t27.5 -13t30 -6q25 0 51 39z" />
<glyph unicode="&#x12a;" horiz-adv-x="193" d="M70 0v696h63v-696h-63zM-10 752v52h223v-52h-223z" />
<glyph unicode="&#x12b;" horiz-adv-x="203" d="M69 1v492h62v-492h-62zM-10 589v54h223v-54h-223z" />
<glyph unicode="&#x12c;" horiz-adv-x="232" d="M87 0v696h63v-696h-63zM41 860q4 -26 24.5 -48t50.5 -22q32 0 52.5 21t23.5 49h50q-2 -19 -10 -39.5t-23.5 -38t-38.5 -28.5t-54 -11q-33 0 -56.5 11t-38.5 28.5t-22.5 38t-8.5 39.5h51z" />
<glyph unicode="&#x12d;" horiz-adv-x="232" d="M85 0v492h62v-492h-62zM41 686q4 -26 24.5 -48t50.5 -22q32 0 52.5 21t23.5 49h50q-2 -19 -10 -39.5t-23.5 -38t-38.5 -28.5t-54 -11q-33 0 -56.5 11t-38.5 28.5t-22.5 38t-8.5 39.5h51z" />
<glyph unicode="&#x12e;" horiz-adv-x="183" d="M36 -91q0 20 7.5 42.5t26.5 48.5h-10v696h63v-696h-11q-15 -22 -23.5 -42.5t-8.5 -37.5q0 -27 12 -37.5t31 -10.5q11 0 23.5 3t26.5 11l14 -39q-14 -10 -34 -16.5t-39 -6.5q-35 0 -56.5 23.5t-21.5 61.5z" />
<glyph unicode="&#x12f;" horiz-adv-x="163" d="M26 -91q0 20 7.5 42.5t26.5 48.5h-11v492h62v-492h-9q-15 -22 -23.5 -42.5t-8.5 -37.5q0 -27 12 -37.5t31 -10.5q11 0 23.5 3t26.5 11l14 -39q-14 -10 -34 -16.5t-39 -6.5q-35 0 -56.5 23.5t-21.5 61.5zM49 612v64h63v-64h-63z" />
<glyph unicode="&#x130;" horiz-adv-x="183" d="M60 0v696h63v-696h-63zM65 759v64h55v-64h-55z" />
<glyph unicode="&#x131;" horiz-adv-x="163" d="M49 0v492h62v-492h-62z" />
<glyph unicode="&#x132;" horiz-adv-x="510" d="M60 0v696h63v-696h-63zM452 696v-532q0 -83 -39.5 -127t-119.5 -44q-34 0 -65.5 12t-50.5 38l42 40q13 -14 34 -24t41 -10q41 0 69 26t28 83v538h61z" />
<glyph unicode="&#x133;" horiz-adv-x="347" d="M49 612v64h63v-64h-63zM49 0v492h62v-492h-62zM240 613v64h63v-64h-63zM302 -71q0 -27 -4.5 -50.5t-16.5 -41t-33 -27.5t-54 -10h-22v56h11q37 0 47 22t10 63v551h62v-563z" />
<glyph unicode="&#x134;" horiz-adv-x="333" d="M265 697v-532q0 -83 -39.5 -127t-119.5 -44q-34 0 -65.5 12t-50.5 38l42 40q13 -14 34 -24t41 -10q41 0 69 26t28 83v538h61zM236 808l-113 -76l-27 23l123 111h40l116 -109l-26 -24z" />
<glyph unicode="&#x135;" horiz-adv-x="257" d="M99 491h61v-573q0 -27 -5.5 -49.5t-18.5 -39.5t-34.5 -26.5t-52.5 -9.5h-17v57h7q37 0 48.5 22t11.5 63v556zM241 552q-29 23 -56.5 47t-56.5 48l-112 -96l-26 22q31 32 61 65l60 66h40l116 -129q-6 -6 -13 -12t-13 -11z" />
<glyph unicode="&#x136;" horiz-adv-x="406" d="M335 0l-139 354l-83 -155v-199h-60v696h60v-382h2l194 382h63l-140 -275l167 -421h-64zM216 -206h-35q6 22 11.5 43.5t10.5 43.5h-17v76h69v-75z" />
<glyph unicode="&#x137;" horiz-adv-x="360" d="M104 229q11 18 33.5 54t46.5 76.5t46 77t33 54.5h69l-114 -186q9 -19 28 -62t40.5 -90.5t41 -90.5t28.5 -62h-67q-5 11 -14 31t-19.5 44t-22 50.5t-22 50.5t-19 44t-13.5 31q-6 -9 -16.5 -26.5t-21.5 -37t-21.5 -37.5t-16.5 -27v-123h-61v726h61v-497h1zM195 -226h-35 q6 22 11.5 43.5t10.5 43.5h-17v76h69v-75z" />
<glyph unicode="&#x138;" horiz-adv-x="358" d="M104 229q11 18 33.5 54t46.5 76.5t46.5 77t33.5 54.5h68l-114 -186q6 -13 16.5 -37t23.5 -53.5t27 -62t27 -62t23.5 -53.5t16.5 -37h-67l-106 251q-6 -9 -16.5 -26.5t-21.5 -37t-21.5 -37.5t-16.5 -27v-123h-61v491h61v-262h1z" />
<glyph unicode="&#x139;" horiz-adv-x="337" d="M53 0v696h61v-640h216v-56h-277zM64 751l135 109l40 -47l-152 -91z" />
<glyph unicode="&#x13a;" horiz-adv-x="189" d="M49 726h61v-603q0 -36 10.5 -55t44.5 -19h12v-56h-15q-28 0 -49.5 5.5t-35.5 19t-21 36t-7 57.5v615zM57 771l135 109l40 -47l-152 -91z" />
<glyph unicode="&#x13b;" horiz-adv-x="337" d="M53 0v696h61v-640h216v-56h-277zM186 -226h-35q6 22 11.5 43.5t10.5 43.5h-17v76h69v-75z" />
<glyph unicode="&#x13c;" horiz-adv-x="189" d="M49 726h61v-603q0 -36 10.5 -55t44.5 -19h12v-56h-15q-28 0 -49.5 5.5t-35.5 19t-21 36t-7 57.5v615zM107 -226h-35q6 22 11.5 43.5t10.5 43.5h-17v76h69v-75z" />
<glyph unicode="&#x13d;" horiz-adv-x="337" d="M53 0v696h61v-640h216v-56h-277zM253 533h-35q6 22 11.5 43.5t10.5 43.5h-17v76h69v-75z" />
<glyph unicode="&#x13e;" horiz-adv-x="259" d="M49 726h61v-603q0 -36 10.5 -55t44.5 -19h12v-56h-15q-28 0 -49.5 5.5t-35.5 19t-21 36t-7 57.5v615zM214 563h-35q6 22 11.5 43.5t10.5 43.5h-17v76h69v-75z" />
<glyph unicode="&#x13f;" horiz-adv-x="337" d="M53 0v696h61v-640h216v-56h-277zM207 309v64h55v-64h-55z" />
<glyph unicode="&#x140;" horiz-adv-x="239" d="M172 347v64h55v-64h-55zM49 726h61v-603q0 -36 10.5 -55t44.5 -19h12v-56h-15q-28 0 -49.5 5.5t-35.5 19t-21 36t-7 57.5v615z" />
<glyph unicode="&#x141;" horiz-adv-x="375" d="M90 0v240l-66 -44l-24 35l90 60v405h61v-364l107 73l23 -35l-130 -88v-226h216v-56h-277z" />
<glyph unicode="&#x142;" horiz-adv-x="272" d="M94 281l-70 -47l-24 36l94 63v393h61v-351l93 63l24 -35l-117 -80v-200q0 -36 10.5 -55t44.5 -19h12v-56h-15q-28 0 -49.5 5.5t-35.5 19t-21 36t-7 57.5v170z" />
<glyph unicode="&#x143;" horiz-adv-x="441" d="M111 526v-526h-61v696h58q6 -15 17.5 -43t26 -62.5t30 -72t30 -72t26 -62.5t18.5 -43l70 -174h4v529h61v-696h-58q-6 15 -17.5 42.5t-26 62t-30 72t-30 71.5t-26.5 61.5t-18 42.5l-71 174h-3zM188 751l135 109l40 -47l-152 -91z" />
<glyph unicode="&#x144;" horiz-adv-x="362" d="M100 440h2q17 28 44.5 43t60.5 15q31 0 52.5 -10t35.5 -27t20.5 -41t6.5 -52v-368h-63v350q0 38 -16 62t-58 24q-41 0 -63.5 -27.5t-22.5 -66.5v-342h-61v492h62v-52zM127 570l67 159l59 -21l-92 -152z" />
<glyph unicode="&#x145;" horiz-adv-x="441" d="M111 526v-526h-61v696h58q6 -15 17.5 -43t26 -62.5t30 -72t30 -72t26 -62.5t18.5 -43l70 -174h4v529h61v-696h-58q-6 15 -17.5 42.5t-26 62t-30 72t-30 71.5t-26.5 61.5t-18 42.5l-71 174h-3zM217 -200h-35q6 22 11.5 43.5t10.5 43.5h-17v76h69v-75z" />
<glyph unicode="&#x146;" horiz-adv-x="362" d="M100 440h2q17 28 44.5 43t60.5 15q31 0 52.5 -10t35.5 -27t20.5 -41t6.5 -52v-368h-63v350q0 38 -16 62t-58 24q-41 0 -63.5 -27.5t-22.5 -66.5v-342h-61v492h62v-52zM176 -226h-35q6 22 11.5 43.5t10.5 43.5h-17v76h69v-75z" />
<glyph unicode="&#x147;" horiz-adv-x="441" d="M111 526v-526h-61v696h58q6 -15 17.5 -43t26 -62.5t30 -72t30 -72t26 -62.5t18.5 -43l70 -174h4v529h61v-696h-58q-6 15 -17.5 42.5t-26 62t-30 72t-30 71.5t-26.5 61.5t-18 42.5l-71 174h-3zM334 864l27 -24l-117 -109h-39l-123 111l27 22l113 -75z" />
<glyph unicode="&#x148;" horiz-adv-x="362" d="M100 440h2q17 28 44.5 43t60.5 15q31 0 52.5 -10t35.5 -27t20.5 -41t6.5 -52v-368h-63v350q0 38 -16 62t-58 24q-41 0 -63.5 -27.5t-22.5 -66.5v-342h-61v492h62v-52zM287 705l26 -24l-116 -128h-40l-123 130l27 22l113 -95z" />
<glyph unicode="&#x149;" horiz-adv-x="422" d="M160 440h2q17 28 44.5 43t60.5 15q31 0 52.5 -10t35.5 -27t20.5 -41t6.5 -52v-368h-63v350q0 38 -16 62t-58 24q-41 0 -63.5 -27.5t-22.5 -66.5v-342h-61v492h62v-52zM44 487h-35q6 22 11.5 43.5t10.5 43.5h-17v76h69v-75z" />
<glyph unicode="&#x14a;" horiz-adv-x="441" d="M110 526v-526h-60v696h57q39 -95 79 -188t78 -187l62 -155q1 0 2 0.5t2 0.5v529h60v-751q0 -50 -21.5 -76t-61.5 -26q-15 0 -28.5 3t-30.5 11l16 43q11 -4 17.5 -5.5t14.5 -1.5q32 0 32 52v65l-9 22q-30 71 -67 160t-73 176l-66 158h-3z" />
<glyph unicode="&#x14b;" horiz-adv-x="362" d="M100 440h2q17 28 44.5 43t60.5 15q31 0 52.5 -10t35.5 -27t20.5 -41t6.5 -52v-423q0 -56 -22.5 -79.5t-61.5 -23.5q-15 0 -28.5 3t-30.5 11l16 44q11 -4 17 -5.5t14 -1.5q33 0 33 52v405q0 38 -16 62t-58 24q-41 0 -63.5 -27.5t-22.5 -66.5v-342h-61v492h62v-52z" />
<glyph unicode="&#x14c;" horiz-adv-x="409" d="M363 172q0 -88 -39.5 -133.5t-119.5 -45.5t-118.5 43t-38.5 120v366q0 37 8 70t26.5 57.5t49 38.5t74.5 14q45 0 75.5 -12.5t48.5 -36t26 -56t8 -72.5v-353zM301 534q0 22 -5 42t-16 35.5t-29.5 25t-45.5 9.5q-29 0 -48 -12.5t-30 -31.5t-15.5 -41.5t-4.5 -42.5v-363 q0 -20 5.5 -39t17 -34t30 -24t44.5 -9q53 0 75 34t22 82v369zM95 752v52h223v-52h-223z" />
<glyph unicode="&#x14d;" horiz-adv-x="356" d="M180 498q56 0 86.5 -22t42.5 -55q9 -26 11.5 -66t2.5 -80v-49q0 -27 -1 -53.5t-4 -56.5q-4 -37 -18.5 -61t-35 -37.5t-44.5 -19t-47 -5.5q-61 0 -91 26.5t-40 64.5q-3 12 -5 30.5t-3 40t-1 43.5v42q0 26 0.5 52.5t2.5 50.5t4.5 43.5t7.5 31.5q13 36 45.5 58t86.5 22z M179 443q-23 0 -43 -10t-31 -36q-7 -18 -9 -55t-2 -88v-32q0 -41 1 -73t7 -49q15 -51 77 -51q29 0 49.5 17t27.5 46q3 18 5 53t2 73q0 21 -0.5 44t-1 44t-2.5 38t-5 26q-8 26 -28 39.5t-47 13.5zM64 588v54h223v-54h-223z" />
<glyph unicode="&#x14e;" horiz-adv-x="409" d="M363 172q0 -88 -39.5 -133.5t-119.5 -45.5t-118.5 43t-38.5 120v366q0 37 8 70t26.5 57.5t49 38.5t74.5 14q45 0 75.5 -12.5t48.5 -36t26 -56t8 -72.5v-353zM301 534q0 22 -5 42t-16 35.5t-29.5 25t-45.5 9.5q-29 0 -48 -12.5t-30 -31.5t-15.5 -41.5t-4.5 -42.5v-363 q0 -20 5.5 -39t17 -34t30 -24t44.5 -9q53 0 75 34t22 82v369zM132 862q3 -26 24 -48t51 -22q32 0 52.5 21.5t22.5 48.5h51q-2 -19 -10.5 -39.5t-24 -38t-38 -28.5t-53.5 -11q-34 0 -57.5 11t-38.5 28.5t-22 38t-8 39.5h51z" />
<glyph unicode="&#x14f;" horiz-adv-x="356" d="M180 498q56 0 86.5 -22t42.5 -55q9 -26 11.5 -66t2.5 -80v-49q0 -27 -1 -53.5t-4 -56.5q-4 -37 -18.5 -61t-35 -37.5t-44.5 -19t-47 -5.5q-61 0 -91 26.5t-40 64.5q-3 12 -5 30.5t-3 40t-1 43.5v42q0 26 0.5 52.5t2.5 50.5t4.5 43.5t7.5 31.5q13 36 45.5 58t86.5 22z M179 443q-23 0 -43 -10t-31 -36q-7 -18 -9 -55t-2 -88v-32q0 -41 1 -73t7 -49q15 -51 77 -51q29 0 49.5 17t27.5 46q3 18 5 53t2 73q0 21 -0.5 44t-1 44t-2.5 38t-5 26q-8 26 -28 39.5t-47 13.5zM101 680q4 -26 24.5 -48t50.5 -22q32 0 52.5 21t23.5 49h50q-2 -19 -10 -39.5 t-23.5 -38t-38.5 -28.5t-54 -11q-33 0 -56.5 11t-38.5 28.5t-22.5 38t-8.5 39.5h51z" />
<glyph unicode="&#x150;" horiz-adv-x="409" d="M363 172q0 -88 -39.5 -133.5t-119.5 -45.5t-118.5 43t-38.5 120v366q0 37 8 70t26.5 57.5t49 38.5t74.5 14q45 0 75.5 -12.5t48.5 -36t26 -56t8 -72.5v-353zM301 534q0 22 -5 42t-16 35.5t-29.5 25t-45.5 9.5q-29 0 -48 -12.5t-30 -31.5t-15.5 -41.5t-4.5 -42.5v-363 q0 -20 5.5 -39t17 -34t30 -24t44.5 -9q53 0 75 34t22 82v369zM107 751l128 109l41 -47l-146 -91zM237 751l128 109l41 -47l-146 -91z" />
<glyph unicode="&#x151;" horiz-adv-x="356" d="M180 498q56 0 86.5 -22t42.5 -55q9 -26 11.5 -66t2.5 -80v-49q0 -27 -1 -53.5t-4 -56.5q-4 -37 -18.5 -61t-35 -37.5t-44.5 -19t-47 -5.5q-61 0 -91 26.5t-40 64.5q-3 12 -5 30.5t-3 40t-1 43.5v42q0 26 0.5 52.5t2.5 50.5t4.5 43.5t7.5 31.5q13 36 45.5 58t86.5 22z M179 443q-23 0 -43 -10t-31 -36q-7 -18 -9 -55t-2 -88v-32q0 -41 1 -73t7 -49q15 -51 77 -51q29 0 49.5 17t27.5 46q3 18 5 53t2 73q0 21 -0.5 44t-1 44t-2.5 38t-5 26q-8 26 -28 39.5t-47 13.5zM100 570l67 159l59 -21l-92 -152zM195 570l67 159l58 -21l-92 -152z" />
<glyph unicode="&#x152;" horiz-adv-x="570" d="M224 699q23 0 38 -3h286v-57h-230v-256h201v-56h-201v-272h230v-55h-285q-13 -3 -29 -5t-33 -2q-79 0 -118.5 42.5t-39.5 119.5v367q0 37 8.5 70t27 57.5t48.5 38.5t74 14q7 0 12.5 -0.5t10.5 -2.5zM201 646q-29 0 -47.5 -12.5t-29.5 -31.5t-15.5 -41.5t-4.5 -42.5v-364 q0 -20 5.5 -39t17 -34t29.5 -24t44 -9q35 0 58 14v571q-22 13 -57 13z" />
<glyph unicode="&#x153;" horiz-adv-x="578" d="M413 498q62 0 95 -30t39 -86q1 -10 1.5 -20t0.5 -21v-110h-221q0 -10 0.5 -19t0.5 -19q1 -26 2 -53t6 -41q8 -23 25.5 -36.5t47.5 -13.5q38 0 55.5 23t21.5 54l60 -14q-8 -54 -41 -86.5t-99 -32.5q-47 0 -73.5 16.5t-39.5 39.5q-21 -32 -54.5 -44t-66.5 -12 q-61 0 -90.5 26.5t-40.5 64.5q-3 12 -5 30.5t-2.5 40t-1 43.5t-0.5 42q0 26 0.5 53t2.5 51t4.5 44t7.5 32q14 36 46 57t86 21q45 0 73 -15.5t43 -39.5h1q16 26 44 40.5t72 14.5zM179 443q-23 0 -43 -10t-31 -36q-7 -18 -9 -55t-2 -88v-32q0 -41 1 -73t7 -49q8 -25 26.5 -38 t50.5 -13q29 0 49.5 17t27.5 46q3 18 5 53t2 73q0 21 -0.5 44t-1 44t-2.5 38t-5 26q-8 26 -27.5 39.5t-47.5 13.5zM340 395q-7 -16 -8.5 -44.5t-2.5 -69.5h158v52v15.5t-1 15.5q-2 33 -19.5 55t-56.5 22q-21 0 -40 -10t-30 -36z" />
<glyph unicode="&#x154;" horiz-adv-x="406" d="M196 696q92 0 131 -49t39 -143q0 -62 -21.5 -109.5t-77.5 -69.5q26 -79 54 -163l54 -162h-63l-102 312h-97v-312h-61v696h144zM113 640v-273h77q64 0 89.5 34.5t25.5 102.5q0 31 -5.5 56t-19 43t-36.5 27.5t-58 9.5h-73zM140 751l135 109l40 -47l-152 -91z" />
<glyph unicode="&#x155;" horiz-adv-x="246" d="M116 430q17 39 43 54t64 15h7.5t7.5 -1v-72q-7 1 -13.5 1.5t-13.5 0.5q-46 0 -71.5 -27.5t-25.5 -84.5v-316h-62v492h62v-62h2zM97 570l67 159l59 -21l-92 -152z" />
<glyph unicode="&#x156;" horiz-adv-x="406" d="M196 696q92 0 131 -49t39 -143q0 -62 -21.5 -109.5t-77.5 -69.5q26 -79 54 -163l54 -162h-63l-102 312h-97v-312h-61v696h144zM113 640v-273h77q64 0 89.5 34.5t25.5 102.5q0 31 -5.5 56t-19 43t-36.5 27.5t-58 9.5h-73zM200 -206h-35q6 22 11.5 43.5t10.5 43.5h-17v76 h69v-75z" />
<glyph unicode="&#x157;" horiz-adv-x="246" d="M116 430q17 39 43 54t64 15h7.5t7.5 -1v-72q-7 1 -13.5 1.5t-13.5 0.5q-46 0 -71.5 -27.5t-25.5 -84.5v-316h-62v492h62v-62h2zM79 -226h-35q6 22 11.5 43.5t10.5 43.5h-17v76h69v-75z" />
<glyph unicode="&#x158;" horiz-adv-x="406" d="M196 696q92 0 131 -49t39 -143q0 -62 -21.5 -109.5t-77.5 -69.5q26 -79 54 -163l54 -162h-63l-102 312h-97v-312h-61v696h144zM113 640v-273h77q64 0 89.5 34.5t25.5 102.5q0 31 -5.5 56t-19 43t-36.5 27.5t-58 9.5h-73zM289 864l27 -24l-117 -109h-39l-123 111l27 22 l113 -75z" />
<glyph unicode="&#x159;" horiz-adv-x="246" d="M116 430q17 39 43 54t64 15h7.5t7.5 -1v-72q-7 1 -13.5 1.5t-13.5 0.5q-46 0 -71.5 -27.5t-25.5 -84.5v-316h-62v492h62v-62h2zM231 705l26 -24l-116 -128h-40l-123 130l27 22l113 -95z" />
<glyph unicode="&#x15a;" horiz-adv-x="386" d="M354 186q0 -44 -8 -79.5t-27 -60.5t-50 -39t-76 -14q-42 0 -72 12t-49.5 32.5t-29 48.5t-9.5 61l62 13q0 -21 5 -40.5t16.5 -34.5t30 -24t46.5 -9q34 0 53.5 11t29.5 29t13 42t3 51q0 33 -3 54.5t-14 37t-31.5 28.5t-55.5 28q-50 22 -79.5 43t-45 43.5t-20.5 48t-5 55.5 q0 39 9.5 72t29.5 56.5t50 37t71 13.5q45 0 75 -13.5t48 -35.5t25.5 -48.5t7.5 -51.5l-62 -15q0 47 -21.5 76.5t-75.5 29.5q-30 0 -48.5 -11.5t-29 -29t-14 -38.5t-3.5 -41q0 -23 4 -41t16.5 -34t36.5 -31t65 -32q45 -18 71 -37.5t39.5 -43t17.5 -52.5t4 -67zM130 751 l135 109l40 -47l-152 -91z" />
<glyph unicode="&#x15b;" horiz-adv-x="331" d="M90 133q-1 -38 19 -61t56 -22q44 0 60.5 21t16.5 62q0 19 -3 33t-12 25t-25 20t-42 19q-39 15 -63.5 30.5t-38 32.5t-18.5 36t-5 40q0 57 33 93.5t102 36.5t102 -34.5t33 -96.5l-64 -9q2 42 -18.5 62.5t-53.5 20.5q-22 0 -36.5 -6.5t-22.5 -17t-11.5 -23.5t-3.5 -26 q0 -14 3.5 -25.5t14 -22t29 -20.5t48.5 -20q37 -14 59.5 -29t34 -33t15 -39t3.5 -46q0 -62 -31 -101.5t-104 -39.5q-136 0 -139 130zM138 570l67 159l59 -21l-92 -152z" />
<glyph unicode="&#x15c;" horiz-adv-x="386" d="M354 186q0 -44 -8 -79.5t-27 -60.5t-50 -39t-76 -14q-42 0 -72 12t-49.5 32.5t-29 48.5t-9.5 61l62 13q0 -21 5 -40.5t16.5 -34.5t30 -24t46.5 -9q34 0 53.5 11t29.5 29t13 42t3 51q0 33 -3 54.5t-14 37t-31.5 28.5t-55.5 28q-50 22 -79.5 43t-45 43.5t-20.5 48t-5 55.5 q0 39 9.5 72t29.5 56.5t50 37t71 13.5q45 0 75 -13.5t48 -35.5t25.5 -48.5t7.5 -51.5l-62 -15q0 47 -21.5 76.5t-75.5 29.5q-30 0 -48.5 -11.5t-29 -29t-14 -38.5t-3.5 -41q0 -23 4 -41t16.5 -34t36.5 -31t65 -32q45 -18 71 -37.5t39.5 -43t17.5 -52.5t4 -67zM195 806 l-113 -76l-27 23l123 111h40l116 -109l-26 -24z" />
<glyph unicode="&#x15d;" horiz-adv-x="331" d="M90 133q-1 -38 19 -61t56 -22q44 0 60.5 21t16.5 62q0 19 -3 33t-12 25t-25 20t-42 19q-39 15 -63.5 30.5t-38 32.5t-18.5 36t-5 40q0 57 33 93.5t102 36.5t102 -34.5t33 -96.5l-64 -9q2 42 -18.5 62.5t-53.5 20.5q-22 0 -36.5 -6.5t-22.5 -17t-11.5 -23.5t-3.5 -26 q0 -14 3.5 -25.5t14 -22t29 -20.5t48.5 -20q37 -14 59.5 -29t34 -33t15 -39t3.5 -46q0 -62 -31 -101.5t-104 -39.5q-136 0 -139 130zM173 647l-113 -95l-27 22l123 131h39l117 -129l-27 -24z" />
<glyph unicode="&#x15e;" horiz-adv-x="386" d="M354 186q0 -84 -32 -135.5t-113 -56.5l-13 -53q23 -2 38 -9.5t24 -18t12.5 -23t3.5 -22.5q0 -12 -4.5 -25t-14 -23.5t-24.5 -17.5t-37 -7q-11 0 -33.5 2.5t-43.5 13.5l11 30q17 -8 31.5 -10t26.5 -2q18 0 30.5 9.5t12.5 28.5q0 20 -13.5 31.5t-43.5 10.5l-16 13l20 72 q-75 5 -108.5 47.5t-34.5 105.5l62 13q0 -21 5 -40.5t16.5 -34.5t30 -24t46.5 -9q34 0 53.5 11t29.5 29t13 42t3 51q0 33 -3 54.5t-14 37t-31.5 28.5t-55.5 28q-50 22 -79.5 43t-45 43.5t-20.5 48t-5 55.5q0 39 9.5 72t29.5 56.5t50 37t71 13.5q45 0 75 -13.5t48 -35.5 t25.5 -48.5t7.5 -51.5l-62 -15q0 47 -21.5 76.5t-75.5 29.5q-30 0 -48.5 -11.5t-29 -29t-14 -38.5t-3.5 -41q0 -23 4 -41t16.5 -34t36.5 -31t65 -32q45 -18 71 -37.5t39.5 -43t17.5 -52.5t4 -67z" />
<glyph unicode="&#x15f;" horiz-adv-x="331" d="M90 133q-1 -38 19 -61t56 -22q44 0 60.5 21t16.5 62q0 19 -3 33t-12 25t-25 20t-42 19q-39 15 -63.5 30.5t-38 32.5t-18.5 36t-5 40q0 57 33 93.5t102 36.5t102 -34.5t33 -96.5l-64 -9q2 42 -18.5 62.5t-53.5 20.5q-22 0 -36.5 -6.5t-22.5 -17t-11.5 -23.5t-3.5 -26 q0 -14 3.5 -25.5t14 -22t29 -20.5t48.5 -20q37 -14 59.5 -29t34 -33t15 -39t3.5 -46q0 -60 -27.5 -97.5t-92.5 -42.5l-13 -53q23 -2 38 -9.5t24 -18t12.5 -23t3.5 -22.5q0 -12 -4.5 -25t-14 -23.5t-24.5 -17.5t-37 -7q-11 0 -33.5 2.5t-43.5 13.5l11 30q17 -8 31.5 -10 t26.5 -2q18 0 30.5 9.5t12.5 28.5q0 20 -13.5 31.5t-43.5 10.5l-16 13l20 72q-118 9 -121 129z" />
<glyph unicode="&#x160;" horiz-adv-x="386" d="M354 186q0 -44 -8 -79.5t-27 -60.5t-50 -39t-76 -14q-42 0 -72 12t-49.5 32.5t-29 48.5t-9.5 61l62 13q0 -21 5 -40.5t16.5 -34.5t30 -24t46.5 -9q34 0 53.5 11t29.5 29t13 42t3 51q0 33 -3 54.5t-14 37t-31.5 28.5t-55.5 28q-50 22 -79.5 43t-45 43.5t-20.5 48t-5 55.5 q0 39 9.5 72t29.5 56.5t50 37t71 13.5q45 0 75 -13.5t48 -35.5t25.5 -48.5t7.5 -51.5l-62 -15q0 47 -21.5 76.5t-75.5 29.5q-30 0 -48.5 -11.5t-29 -29t-14 -38.5t-3.5 -41q0 -23 4 -41t16.5 -34t36.5 -31t65 -32q45 -18 71 -37.5t39.5 -43t17.5 -52.5t4 -67zM304 864 l27 -24l-117 -109h-39l-123 111l27 22l113 -75z" />
<glyph unicode="&#x161;" horiz-adv-x="331" d="M90 133q-1 -38 19 -61t56 -22q44 0 60.5 21t16.5 62q0 19 -3 33t-12 25t-25 20t-42 19q-39 15 -63.5 30.5t-38 32.5t-18.5 36t-5 40q0 57 33 93.5t102 36.5t102 -34.5t33 -96.5l-64 -9q2 42 -18.5 62.5t-53.5 20.5q-22 0 -36.5 -6.5t-22.5 -17t-11.5 -23.5t-3.5 -26 q0 -14 3.5 -25.5t14 -22t29 -20.5t48.5 -20q37 -14 59.5 -29t34 -33t15 -39t3.5 -46q0 -62 -31 -101.5t-104 -39.5q-136 0 -139 130zM288 705l26 -24l-116 -128h-40l-123 130l27 22l113 -95z" />
<glyph unicode="&#x162;" horiz-adv-x="320" d="M191 640v-640h-63v640h-125v56h313v-56h-125zM157 -226h-35q6 22 11.5 43.5t10.5 43.5h-17v76h69v-75z" />
<glyph unicode="&#x163;" horiz-adv-x="225" d="M130 492h69v-49h-69v-318q0 -37 14 -52.5t44 -15.5h13v-57h-30q-57 0 -80 32t-23 78v333h-54v49h55v127h61v-127zM110 -226h-35q6 22 11.5 43.5t10.5 43.5h-17v76h69v-75z" />
<glyph unicode="&#x164;" horiz-adv-x="320" d="M191 640v-640h-63v640h-125v56h313v-56h-125zM273 864l27 -24l-117 -109h-39l-123 111l27 22l113 -75z" />
<glyph unicode="&#x165;" horiz-adv-x="266" d="M130 492h69v-49h-69v-318q0 -37 14 -52.5t44 -15.5h13v-57h-30q-57 0 -80 32t-23 78v333h-54v49h55v127h61v-127zM221 550h-35q6 22 11.5 43.5t10.5 43.5h-17v76h69v-75z" />
<glyph unicode="&#x166;" horiz-adv-x="320" d="M191 640v-229h102v-44h-102v-367h-63v367h-100v44h100v229h-125v56h313v-56h-125z" />
<glyph unicode="&#x167;" horiz-adv-x="225" d="M130 492h69v-49h-69v-137h60v-41h-60v-140q0 -37 14 -52.5t44 -15.5h13v-57h-30q-57 0 -80 32t-23 78v155h-54v41h54v137h-54v49h55v127h61v-127z" />
<glyph unicode="&#x168;" horiz-adv-x="407" d="M361 695v-523q0 -88 -39 -133.5t-119 -45.5q-79 0 -118.5 43t-39.5 120v539h61v-540q0 -20 5.5 -39t17 -34t30 -24t44.5 -9q53 0 75 34t22 82v530h61zM341 814q-16 -33 -38.5 -50.5t-43.5 -17.5q-15 0 -29.5 6t-28.5 12.5t-27 12.5t-25 6q-26 0 -50 -35l-33 20 q12 25 33.5 45.5t46.5 20.5q15 0 28 -6t26.5 -13t27.5 -13t30 -6q25 0 51 39z" />
<glyph unicode="&#x169;" horiz-adv-x="364" d="M261 52h-3q-17 -28 -44 -42.5t-60 -14.5q-31 0 -52.5 9.5t-35.5 27t-20.5 41t-6.5 51.5v369h63v-351q0 -42 16.5 -65t58.5 -23q38 0 61.5 27.5t23.5 66.5v345h61v-492h-62v51zM319 644q-16 -33 -38.5 -50.5t-43.5 -17.5q-15 0 -29.5 6t-28.5 12.5t-27 12.5t-25 6 q-26 0 -50 -35l-33 20q12 25 33.5 45.5t46.5 20.5q15 0 28 -6t26.5 -13t27.5 -13t30 -6q25 0 51 39z" />
<glyph unicode="&#x16a;" horiz-adv-x="407" d="M361 695v-523q0 -88 -39 -133.5t-119 -45.5q-79 0 -118.5 43t-39.5 120v539h61v-540q0 -20 5.5 -39t17 -34t30 -24t44.5 -9q53 0 75 34t22 82v530h61zM94 752v52h223v-52h-223z" />
<glyph unicode="&#x16b;" horiz-adv-x="364" d="M261 52h-3q-17 -28 -44 -42.5t-60 -14.5q-31 0 -52.5 9.5t-35.5 27t-20.5 41t-6.5 51.5v369h63v-351q0 -42 16.5 -65t58.5 -23q38 0 61.5 27.5t23.5 66.5v345h61v-492h-62v51zM73 588v54h223v-54h-223z" />
<glyph unicode="&#x16c;" horiz-adv-x="407" d="M361 695v-523q0 -88 -39 -133.5t-119 -45.5q-79 0 -118.5 43t-39.5 120v539h61v-540q0 -20 5.5 -39t17 -34t30 -24t44.5 -9q53 0 75 34t22 82v530h61zM131 862q3 -26 24 -48t51 -22q32 0 52.5 21.5t22.5 48.5h51q-2 -19 -10.5 -39.5t-24 -38t-38 -28.5t-53.5 -11 q-34 0 -57.5 11t-38.5 28.5t-22 38t-8 39.5h51z" />
<glyph unicode="&#x16d;" horiz-adv-x="364" d="M261 52h-3q-17 -28 -44 -42.5t-60 -14.5q-31 0 -52.5 9.5t-35.5 27t-20.5 41t-6.5 51.5v369h63v-351q0 -42 16.5 -65t58.5 -23q38 0 61.5 27.5t23.5 66.5v345h61v-492h-62v51zM108 680q4 -26 24.5 -48t50.5 -22q32 0 52.5 21t23.5 49h50q-2 -19 -10 -39.5t-23.5 -38 t-38.5 -28.5t-54 -11q-33 0 -56.5 11t-38.5 28.5t-22.5 38t-8.5 39.5h51z" />
<glyph unicode="&#x16e;" horiz-adv-x="407" d="M361 695v-523q0 -88 -39 -133.5t-119 -45.5q-79 0 -118.5 43t-39.5 120v539h61v-540q0 -20 5.5 -39t17 -34t30 -24t44.5 -9q53 0 75 34t22 82v530h61zM206 708q-36 0 -61 25t-25 61t25 61t61 25q35 0 60 -25t25 -61t-25 -61t-60 -25zM206 844q-21 0 -36 -15t-15 -36 t15 -36t36 -15q20 0 35 15t15 36t-15 36t-35 15z" />
<glyph unicode="&#x16f;" horiz-adv-x="364" d="M261 52h-3q-17 -28 -44 -42.5t-60 -14.5q-31 0 -52.5 9.5t-35.5 27t-20.5 41t-6.5 51.5v369h63v-351q0 -42 16.5 -65t58.5 -23q38 0 61.5 27.5t23.5 66.5v345h61v-492h-62v51zM188 546q-36 0 -61 25t-25 61t25 61t61 25q35 0 60 -25t25 -61t-25 -61t-60 -25zM188 682 q-21 0 -36 -15t-15 -36t15 -36t36 -15q20 0 35 15t15 36t-15 36t-35 15z" />
<glyph unicode="&#x170;" horiz-adv-x="407" d="M361 695v-523q0 -88 -39 -133.5t-119 -45.5q-79 0 -118.5 43t-39.5 120v539h61v-540q0 -20 5.5 -39t17 -34t30 -24t44.5 -9q53 0 75 34t22 82v530h61zM100 751l128 109l41 -47l-146 -91zM230 751l128 109l41 -47l-146 -91z" />
<glyph unicode="&#x171;" horiz-adv-x="364" d="M261 52h-3q-17 -28 -44 -42.5t-60 -14.5q-31 0 -52.5 9.5t-35.5 27t-20.5 41t-6.5 51.5v369h63v-351q0 -42 16.5 -65t58.5 -23q38 0 61.5 27.5t23.5 66.5v345h61v-492h-62v51zM103 570l67 159l59 -21l-92 -152zM198 570l67 159l58 -21l-92 -152z" />
<glyph unicode="&#x172;" horiz-adv-x="407" d="M158 -91q0 18 6.5 39t22.5 46q-72 4 -107 46.5t-35 115.5v539h61v-540q0 -20 5.5 -39t17 -34t30 -24t44.5 -9q53 0 75 34t22 82v530h61v-523q0 -80 -32.5 -124.5t-98.5 -52.5q-13 -21 -20.5 -39.5t-7.5 -35.5q0 -27 12 -37.5t31 -10.5q11 0 23.5 3t26.5 11l14 -39 q-14 -10 -34 -16.5t-39 -6.5q-35 0 -56.5 23.5t-21.5 61.5z" />
<glyph unicode="&#x173;" horiz-adv-x="364" d="M261 52h-3q-17 -28 -44 -42.5t-60 -14.5q-31 0 -52.5 9.5t-35.5 27t-20.5 41t-6.5 51.5v369h63v-351q0 -42 16.5 -65t58.5 -23q38 0 61.5 27.5t23.5 66.5v345h61v-492h-18q-15 -23 -24 -43.5t-9 -37.5q0 -27 12 -37.5t31 -10.5q11 0 23.5 3t26.5 11l14 -39 q-14 -10 -34 -16.5t-39 -6.5q-35 0 -56.5 23.5t-21.5 61.5q0 20 7.5 42.5t26.5 49.5h-1v51z" />
<glyph unicode="&#x174;" horiz-adv-x="581" d="M454 -1h-63l-68 368l-32 186h-3l-31 -189l-68 -365h-62l-109 697h63l51 -347l28 -227h3l35 225l64 349h58l62 -349l37 -225h3l27 226l51 348h63zM291 806l-113 -76l-27 23l123 111h40l116 -109l-26 -24z" />
<glyph unicode="&#x175;" horiz-adv-x="538" d="M267 373l-46 -214l-36 -159h-62l-113 491h64q6 -29 15.5 -75t20.5 -99q7 -32 13.5 -64.5t12.5 -61.5t11 -54t8 -41h3q7 38 19.5 99.5t25.5 124.5l36 171h63l33 -163q12 -59 23.5 -117.5t23.5 -116.5h3l36 182q4 21 10 50t12 59t12 58t10 48h64q-29 -124 -57 -245.5 t-56 -245.5h-63l-34 148q-13 56 -25 112.5t-24 112.5h-3zM271 647l-113 -95l-27 22l123 131h39l117 -129l-27 -24z" />
<glyph unicode="&#x176;" horiz-adv-x="363" d="M182 375l44 140l60 181h64q-6 -17 -17 -48.5t-24.5 -71t-28.5 -82t-28.5 -81.5t-24 -71t-16.5 -48v-295h-61v295q-6 16 -16.5 48t-24 71t-28.5 81.5t-28.5 82t-24.5 71t-17 48.5h64l60 -183q3 -9 9 -28t13 -41t13 -41t9 -28h3zM182 806l-113 -76l-27 23l123 111h40 l116 -109l-26 -24z" />
<glyph unicode="&#x177;" horiz-adv-x="326" d="M167 92q11 48 22 100.5t22 100.5l48 198h62l-148 -577q-6 -22 -14.5 -42t-21.5 -35t-32 -24t-46 -9h-23v53h16q30 0 45 21t25 66l14 55l-131 492h65q14 -54 26 -107.5t25 -107.5q5 -21 11 -46.5l12 -51t11.5 -48.5t8.5 -38h3zM169 647l-113 -95l-27 22l123 131h39 l117 -129l-27 -24z" />
<glyph unicode="&#x178;" horiz-adv-x="363" d="M182 375l44 140l60 181h64q-6 -17 -17 -48.5t-24.5 -71t-28.5 -82t-28.5 -81.5t-24 -71t-16.5 -48v-295h-61v295q-6 16 -16.5 48t-24 71t-28.5 81.5t-28.5 82t-24.5 71t-17 48.5h64l60 -183q3 -9 9 -28t13 -41t13 -41t9 -28h3zM79 749v63h56v-63h-56zM229 749v63h55v-63 h-55z" />
<glyph unicode="&#x179;" horiz-adv-x="313" d="M296 640l-218 -584h212v-56h-274v56l218 584h-204v56h266v-56zM126 751l135 109l40 -47l-152 -91z" />
<glyph unicode="&#x17a;" horiz-adv-x="294" d="M275 437l-190 -380h188v-57h-254v57l189 380h-173v54h240v-54zM134 570l67 159l59 -21l-92 -152z" />
<glyph unicode="&#x17b;" horiz-adv-x="313" d="M296 640l-218 -584h212v-56h-274v56l218 584h-204v56h266v-56zM145 766v64h55v-64h-55z" />
<glyph unicode="&#x17c;" horiz-adv-x="294" d="M275 437l-190 -380h188v-57h-254v57l189 380h-173v54h240v-54zM136 596v64h55v-64h-55z" />
<glyph unicode="&#x17d;" horiz-adv-x="313" d="M296 640l-218 -584h212v-56h-274v56l218 584h-204v56h266v-56zM277 864l27 -24l-117 -109h-39l-123 111l27 22l113 -75z" />
<glyph unicode="&#x17e;" horiz-adv-x="294" d="M275 437l-190 -380h188v-57h-254v57l189 380h-173v54h240v-54zM270 705l26 -24l-116 -128h-40l-123 130l27 22l113 -95z" />
<glyph unicode="&#x192;" horiz-adv-x="367" d="M90 412h79l14 109q4 36 12.5 68t24 56t40.5 38t61 14q14 0 28.5 -2.5t26.5 -7.5l-13 -54q-10 5 -22 7t-23 2q-68 0 -81 -119l-14 -111h87v-47h-93l-31 -266q-11 -95 -40 -142.5t-92 -47.5q-14 0 -30.5 3t-30.5 9q4 14 7.5 25t8.5 23q20 -7 40 -7q37 0 55.5 31.5 t26.5 103.5l31 268h-72v47z" />
<glyph unicode="&#x1a0;" horiz-adv-x="432" d="M363 172q0 -88 -39.5 -133.5t-119.5 -45.5t-118.5 43t-38.5 120v366q0 37 8 70t26.5 57.5t49 38.5t74.5 14q51 0 83.5 -16.5t49.5 -45.5q29 4 39.5 25t10.5 63v46h55v-44q0 -66 -20 -99.5t-66 -41.5q6 -30 6 -64v-353zM301 534q0 22 -5 42t-16 35.5t-29.5 25t-45.5 9.5 q-29 0 -48 -12.5t-30 -31.5t-15.5 -41.5t-4.5 -42.5v-363q0 -20 5.5 -39t17 -34t30 -24t44.5 -9q53 0 75 34t22 82v369z" />
<glyph unicode="&#x1a1;" horiz-adv-x="395" d="M180 498q45 0 73 -14.5t43 -37.5q29 4 39.5 25.5t10.5 63.5v46h54v-45q0 -65 -19.5 -98.5t-65.5 -41.5q5 -26 6.5 -57.5t1.5 -63.5v-49q0 -27 -1 -53.5t-4 -56.5q-4 -37 -18.5 -61t-35 -37.5t-44.5 -19t-47 -5.5q-61 0 -91 26.5t-40 64.5q-3 12 -5 30.5t-3 40t-1 43.5v42 q0 26 0.5 52.5t2.5 50.5t4.5 43.5t7.5 31.5q13 36 45.5 58t86.5 22zM179 443q-23 0 -43 -10t-31 -36q-7 -18 -9 -55t-2 -88v-32q0 -41 1 -73t7 -49q15 -51 77 -51q29 0 49.5 17t27.5 46q3 18 5 53t2 73q0 21 -0.5 44t-1 44t-2.5 38t-5 26q-8 26 -28 39.5t-47 13.5z" />
<glyph unicode="&#x1af;" horiz-adv-x="450" d="M361 695v-56q31 3 42.5 24t11.5 65v46h54v-44q0 -73 -25 -107t-83 -36v-415q0 -88 -39 -133.5t-119 -45.5q-79 0 -118.5 43t-39.5 120v539h61v-540q0 -20 5.5 -39t17 -34t30 -24t44.5 -9q53 0 75 34t22 82v530h61z" />
<glyph unicode="&#x1b0;" horiz-adv-x="426" d="M261 52h-3q-17 -28 -44 -42.5t-60 -14.5q-31 0 -52.5 9.5t-35.5 27t-20.5 41t-6.5 51.5v369h63v-351q0 -42 16.5 -65t58.5 -23q38 0 61.5 27.5t23.5 66.5v345h61v-47q31 3 42.5 24.5t11.5 64.5v46h55v-44q0 -73 -25 -107t-84 -36v-393h-62v51z" />
<glyph unicode="&#x1fc;" horiz-adv-x="624" d="M310 186h-173l-71 -186h-62l270 696h327v-57h-229v-255h200v-57h-200v-270h229v-57h-291v186zM158 244h152v395h-2zM377 751l135 109l40 -47l-152 -91z" />
<glyph unicode="&#x1fd;" horiz-adv-x="559" d="M389 -7q-45 0 -74.5 17t-45.5 44q-15 -20 -31 -32t-31.5 -18t-29.5 -8t-26 -2q-38 0 -62.5 12t-39 32t-20.5 45t-6 52q0 28 7 55.5t23 50t42 36.5t64 14h87v73q0 35 -17.5 56t-60.5 21q-27 0 -47.5 -14t-27.5 -40l-58 18q12 43 48.5 68.5t87.5 25.5q45 0 71 -13t38 -36 q37 49 115 49q69 0 103.5 -37.5t34.5 -106.5v-117h-222v-29.5t0.5 -38t1.5 -35.5t3 -22q5 -28 24.5 -45.5t52.5 -17.5q37 0 55.5 23t21.5 54l61 -14q-8 -54 -41 -87t-101 -33zM246 239h-72q-38 0 -64.5 -23t-26.5 -78q0 -35 19 -60t63 -25q36 0 58.5 22.5t22.5 63.5v100z M471 290v54q0 41 -17.5 69t-62.5 28q-59 0 -73 -60q-2 -5 -3 -15.5t-2 -23.5t-1.5 -27t-0.5 -25h160zM268 570l67 159l59 -21l-92 -152z" />
<glyph unicode="&#x1fe;" horiz-adv-x="409" d="M363 172q0 -88 -39.5 -133.5t-119.5 -45.5q-76 0 -116 40l-19 -44l-33 18l27 63q-16 35 -16 86v366q0 37 8 70t26.5 57.5t49 38.5t74.5 14q40 0 68 -10t47 -29l19 43l36 -17l-29 -66q9 -20 13 -44.5t4 -53.5v-353zM107 170l183 423q-10 23 -30.5 38t-54.5 15 q-29 0 -48 -12.5t-30 -31.5t-15.5 -41.5t-4.5 -42.5v-348zM301 519l-183 -418q11 -23 31.5 -37.5t54.5 -14.5q53 0 75 34t22 82v354zM164 751l135 109l41 -47l-153 -91z" />
<glyph unicode="&#x1ff;" horiz-adv-x="356" d="M180 498q31 0 54 -7.5t39 -20.5l17 32l29 -16l-22 -42q7 -10 12 -23q9 -26 11.5 -66t2.5 -80v-49q0 -27 -1 -53.5t-4 -56.5q-4 -37 -18.5 -61t-35 -37.5t-44.5 -19t-47 -5.5q-32 0 -55 7.5t-39 21.5q-5 -8 -9 -16l-8 -16l-26 15l21 42q-10 16 -15 37q-3 12 -5 30.5t-3 40 t-1 43.5v42q0 26 0.5 52.5t2.5 50.5t4.5 43.5t7.5 31.5q13 36 45.5 58t86.5 22zM110 81q20 -32 69 -32q29 0 49.5 17t27.5 46q3 18 5 53t2 73q0 33 -1 69t-4 61zM179 443q-23 0 -43 -10t-31 -36q-7 -18 -9 -55t-2 -88v-32v-54t2 -44l147 288q-22 31 -64 31zM176 556 q-8 3 -16.5 6t-16.5 7q17 40 33.5 79.5t33.5 79.5q15 -5 29.5 -10.5t28.5 -10.5z" />
<glyph unicode="&#x218;" horiz-adv-x="386" d="M354 186q0 -44 -8 -79.5t-27 -60.5t-50 -39t-76 -14q-42 0 -72 12t-49.5 32.5t-29 48.5t-9.5 61l62 13q0 -21 5 -40.5t16.5 -34.5t30 -24t46.5 -9q34 0 53.5 11t29.5 29t13 42t3 51q0 33 -3 54.5t-14 37t-31.5 28.5t-55.5 28q-50 22 -79.5 43t-45 43.5t-20.5 48t-5 55.5 q0 39 9.5 72t29.5 56.5t50 37t71 13.5q45 0 75 -13.5t48 -35.5t25.5 -48.5t7.5 -51.5l-62 -15q0 47 -21.5 76.5t-75.5 29.5q-30 0 -48.5 -11.5t-29 -29t-14 -38.5t-3.5 -41q0 -23 4 -41t16.5 -34t36.5 -31t65 -32q45 -18 71 -37.5t39.5 -43t17.5 -52.5t4 -67zM190 -226h-35 q6 22 11.5 43.5t10.5 43.5h-17v76h69v-75z" />
<glyph unicode="&#x219;" horiz-adv-x="331" d="M90 133q-1 -38 19 -61t56 -22q44 0 60.5 21t16.5 62q0 19 -3 33t-12 25t-25 20t-42 19q-39 15 -63.5 30.5t-38 32.5t-18.5 36t-5 40q0 57 33 93.5t102 36.5t102 -34.5t33 -96.5l-64 -9q2 42 -18.5 62.5t-53.5 20.5q-22 0 -36.5 -6.5t-22.5 -17t-11.5 -23.5t-3.5 -26 q0 -14 3.5 -25.5t14 -22t29 -20.5t48.5 -20q37 -14 59.5 -29t34 -33t15 -39t3.5 -46q0 -62 -31 -101.5t-104 -39.5q-136 0 -139 130zM165 -226h-35q6 22 11.5 43.5t10.5 43.5h-17v76h69v-75z" />
<glyph unicode="&#x259;" horiz-adv-x="350" d="M168 -6q-60 0 -93.5 29.5t-39.5 83.5q-1 11 -1.5 22t-0.5 22v110h220q0 10 -0.5 19t-0.5 19q0 26 -1.5 53t-6.5 41q-16 50 -72 50q-38 0 -56 -22.5t-20 -59.5l-62 12q5 61 40.5 93.5t100.5 32.5q31 0 53.5 -8t38 -20.5t24.5 -29t14 -33.5q3 -12 5 -30.5t2.5 -40t1 -44 t0.5 -41.5q0 -26 -0.5 -52t-2.5 -50t-5 -43.5t-7 -32.5q-14 -37 -45 -58.5t-86 -21.5zM242 97q6 16 7.5 44.5t2.5 69.5h-158v-52q0 -21 2.5 -40.5t11 -34.5t23.5 -24t40 -9q22 0 41 10t30 36z" />
<glyph unicode="&#x2b9;" horiz-adv-x="184" d="M212 670l-131 -257l-42 13l97 264z" />
<glyph unicode="&#x2c6;" horiz-adv-x="353" d="M176 647l-113 -95l-27 22l123 131h39l117 -129l-27 -24z" />
<glyph unicode="&#x2c7;" horiz-adv-x="352" d="M292 705l26 -24l-116 -128h-40l-123 130l27 22l113 -95z" />
<glyph unicode="&#x2d8;" horiz-adv-x="352" d="M102 680q4 -26 24.5 -48t50.5 -22q32 0 52.5 21t23.5 49h50q-2 -19 -10 -39.5t-23.5 -38t-38.5 -28.5t-54 -11q-33 0 -56.5 11t-38.5 28.5t-22.5 38t-8.5 39.5h51z" />
<glyph unicode="&#x2d9;" horiz-adv-x="352" d="M159 596v64h55v-64h-55z" />
<glyph unicode="&#x2da;" horiz-adv-x="352" d="M186 546q-36 0 -61 25t-25 61t25 61t61 25q35 0 60 -25t25 -61t-25 -61t-60 -25zM186 682q-21 0 -36 -15t-15 -36t15 -36t36 -15q20 0 35 15t15 36t-15 36t-35 15z" />
<glyph unicode="&#x2db;" horiz-adv-x="375" d="M259 -92q0 20 8 43t28 51h40l1 -2q-15 -23 -24 -43.5t-9 -37.5q0 -27 12 -37.5t31 -10.5q11 0 23.5 3t26.5 11l14 -39q-14 -10 -34 -16.5t-39 -6.5q-35 0 -56.5 23.5t-21.5 61.5z" />
<glyph unicode="&#x2dc;" horiz-adv-x="362" d="M318 644q-16 -33 -38.5 -50.5t-43.5 -17.5q-15 0 -29.5 6t-28.5 12.5t-27 12.5t-25 6q-26 0 -50 -35l-33 20q12 25 33.5 45.5t46.5 20.5q15 0 28 -6t26.5 -13t27.5 -13t30 -6q25 0 51 39z" />
<glyph unicode="&#x2dd;" horiz-adv-x="352" d="M101 570l67 159l59 -21l-92 -152zM196 570l67 159l58 -21l-92 -152z" />
<glyph unicode="&#x384;" horiz-adv-x="350" d="M141 570l67 159l59 -21l-92 -152z" />
<glyph unicode="&#x385;" horiz-adv-x="353" d="M247 587v64h55v-64h-55zM51 587v64h56v-64h-56zM127 570l68 159l59 -21l-92 -152z" />
<glyph unicode="&#x386;" horiz-adv-x="386" d="M316 0l-37 168h-173l-36 -168h-58l150 696h62l153 -696h-61zM191 594l-33 -168l-42 -200h152l-42 202l-32 166h-3zM-49 557l67 159l59 -21l-92 -152z" />
<glyph unicode="&#x387;" horiz-adv-x="164" d="M47 303v74h70v-74h-70z" />
<glyph unicode="&#x388;" horiz-adv-x="361" d="M53 0v696h291v-57h-230v-255h201v-57h-201v-271h230v-56h-291zM-108 557l67 159l59 -21l-92 -152z" />
<glyph unicode="&#x389;" horiz-adv-x="420" d="M305 0v329h-191v-329h-61v696h61v-313h191v313h62v-696h-62zM-104 557l67 159l59 -21l-92 -152z" />
<glyph unicode="&#x38a;" horiz-adv-x="183" d="M60 0v696h63v-696h-63zM-100 557l67 159l59 -21l-92 -152z" />
<glyph unicode="&#x38c;" horiz-adv-x="409" d="M363 172q0 -88 -39.5 -133.5t-119.5 -45.5t-118.5 43t-38.5 120v366q0 37 8 70t26.5 57.5t49 38.5t74.5 14q45 0 75.5 -12.5t48.5 -36t26 -56t8 -72.5v-353zM301 534q0 22 -5 42t-16 35.5t-29.5 25t-45.5 9.5q-29 0 -48 -12.5t-30 -31.5t-15.5 -41.5t-4.5 -42.5v-363 q0 -20 5.5 -39t17 -34t30 -24t44.5 -9q53 0 75 34t22 82v369zM-89 557l67 159l59 -21l-92 -152z" />
<glyph unicode="&#x38e;" horiz-adv-x="363" d="M182 375l44 140l60 181h64q-6 -17 -17 -48.5t-24.5 -71t-28.5 -82t-28.5 -81.5t-24 -71t-16.5 -48v-295h-61v295q-6 16 -16.5 48t-24 71t-28.5 81.5t-28.5 82t-24.5 71t-17 48.5h64l60 -183q3 -9 9 -28t13 -41t13 -41t9 -28h3zM-128 557l67 159l59 -21l-92 -152z" />
<glyph unicode="&#x38f;" horiz-adv-x="408" d="M320 58h50v-58h-126v69q26 11 41.5 33t15.5 57v376q0 22 -5.5 42t-17.5 35.5t-30.5 24.5t-44.5 9q-35 0 -54 -14.5t-29 -36t-12 -47.5t-2 -49v-341q0 -35 15.5 -57t40.5 -32v-69h-125v58h51v2q-20 15 -31.5 42.5t-11.5 69.5v333q0 42 7.5 78t25.5 62.5t48.5 41.5t76.5 15 q48 0 78.5 -13t48.5 -38t24.5 -60.5t6.5 -80.5v-336q0 -33 -9.5 -65.5t-32.5 -49.5zM-91 557l67 159l59 -21l-92 -152z" />
<glyph unicode="&#x390;" horiz-adv-x="178" d="M140 -3q-5 -1 -9 -1h-8q-41 0 -56.5 19t-15.5 65v411h61v-399q0 -23 6.5 -30t22.5 -8zM166 587v64h55v-64h-55zM-30 587v64h56v-64h-56zM46 570l68 159l59 -21l-92 -152z" />
<glyph unicode="&#x391;" horiz-adv-x="386" d="M316 0l-37 168h-173l-36 -168h-58l150 696h62l153 -696h-61zM191 594l-33 -168l-42 -200h152l-42 202l-32 166h-3z" />
<glyph unicode="&#x392;" horiz-adv-x="412" d="M289 365q46 -14 63.5 -57.5t17.5 -103.5q0 -109 -45 -156.5t-133 -47.5h-139v696h146q45 0 76.5 -12t51 -35t28 -56.5t8.5 -75.5q0 -54 -16 -90t-58 -58v-4zM310 209q0 63 -24.5 97t-84.5 34h-87v-284h82q36 0 58.5 12t34.5 33t16.5 49t4.5 59zM303 518q0 59 -26 90.5 t-89 31.5h-74v-246h82q59 0 83 32t24 92z" />
<glyph unicode="&#x393;" horiz-adv-x="354" d="M114 639v-639h-61v696h280v-57h-219z" />
<glyph unicode="&#x394;" horiz-adv-x="386" d="M11 0l151 696h62q6 -29 18 -84t26.5 -122.5t31 -141.5t31 -141.5t26.5 -122.5t19 -84h-365zM190 580q-7 -29 -16.5 -76t-20.5 -102q-4 -18 -10 -46.5t-12.5 -62t-14 -69t-14.5 -68t-12.5 -58.5t-8.5 -41h222l-72 346l-37 177h-4z" />
<glyph unicode="&#x395;" horiz-adv-x="361" d="M53 0v696h291v-57h-230v-255h201v-57h-201v-271h230v-56h-291z" />
<glyph unicode="&#x396;" horiz-adv-x="313" d="M296 640l-218 -584h212v-56h-274v56l218 584h-204v56h266v-56z" />
<glyph unicode="&#x397;" horiz-adv-x="420" d="M305 0v329h-191v-329h-61v696h61v-313h191v313h62v-696h-62z" />
<glyph unicode="&#x398;" horiz-adv-x="409" d="M131 384h147v-57h-147v57zM363 172q0 -88 -39 -133.5t-120 -45.5q-79 0 -118 43t-39 120v366q0 37 8 70t26.5 57.5t49 38.5t74.5 14q45 0 75.5 -12.5t48.5 -36t26 -56t8 -72.5v-353zM301 534q0 22 -5 42t-16 35.5t-29.5 25t-45.5 9.5q-29 0 -48 -12.5t-30 -31.5 t-15.5 -41.5t-4.5 -42.5v-363q0 -20 5.5 -39t17 -34t30 -24t44.5 -9q53 0 75 34t22 82v369z" />
<glyph unicode="&#x399;" horiz-adv-x="183" d="M60 0v696h63v-696h-63z" />
<glyph unicode="&#x39a;" horiz-adv-x="406" d="M335 0l-139 354l-83 -155v-199h-60v696h60v-382h2l194 382h63l-140 -275l167 -421h-64z" />
<glyph unicode="&#x39b;" horiz-adv-x="386" d="M190 581q-8 -40 -15.5 -76.5t-13.5 -62.5q-18 -90 -30.5 -151.5t-22.5 -109.5t-19 -89.5t-20 -91.5h-58l151 696h61l153 -696h-60q-15 67 -25 115t-20 94.5t-21.5 101.5t-29.5 138q-2 9 -4.5 26t-6.5 36t-7.5 37.5t-6.5 32.5h-5z" />
<glyph unicode="&#x39c;" horiz-adv-x="548" d="M431 526q-5 -12 -14 -35.5t-18.5 -49.5t-19 -49.5t-13.5 -35.5q-1 -3 -6.5 -17.5t-13.5 -34.5t-17.5 -43t-17.5 -43t-14 -34.5t-7 -17.5h-34q-5 13 -15.5 39t-22 55t-22 55t-15.5 39l-64 170h-4v-524h-61v696h62q6 -15 18 -46t25 -65.5t25 -65.5t17 -46l73 -194h3 q5 14 15 41t21.5 57t22 57.5t15.5 41.5q1 3 7.5 20t15.5 40t19.5 50t19 50t15 39.5t7.5 20.5h63v-696h-61v526h-4z" />
<glyph unicode="&#x39d;" horiz-adv-x="441" d="M111 526v-526h-61v696h58q6 -15 17.5 -43t26 -62.5t30 -72t30 -72t26 -62.5t18.5 -43l70 -174h4v529h61v-696h-58q-6 15 -17.5 42.5t-26 62t-30 72t-30 71.5t-26.5 61.5t-18 42.5l-71 174h-3z" />
<glyph unicode="&#x39e;" horiz-adv-x="351" d="M26 639v57h303v-57h-303zM52 327v57h250v-57h-250zM26 0v61h303v-61h-303z" />
<glyph unicode="&#x39f;" horiz-adv-x="409" d="M363 172q0 -88 -39.5 -133.5t-119.5 -45.5t-118.5 43t-38.5 120v366q0 37 8 70t26.5 57.5t49 38.5t74.5 14q45 0 75.5 -12.5t48.5 -36t26 -56t8 -72.5v-353zM301 534q0 22 -5 42t-16 35.5t-29.5 25t-45.5 9.5q-29 0 -48 -12.5t-30 -31.5t-15.5 -41.5t-4.5 -42.5v-363 q0 -20 5.5 -39t17 -34t30 -24t44.5 -9q53 0 75 34t22 82v369z" />
<glyph unicode="&#x3a0;" horiz-adv-x="411" d="M297 0v641h-183v-641h-61v696h306v-696h-62z" />
<glyph unicode="&#x3a1;" horiz-adv-x="391" d="M192 696q52 0 86.5 -14t54 -40.5t27.5 -64t8 -83.5q0 -44 -8 -82t-28 -65.5t-55.5 -43t-89.5 -15.5h-73v-288h-61v696h139zM114 345h70q38 0 62 10.5t38 30t19 47t5 60.5q0 31 -4.5 58t-18 46.5t-37.5 31t-62 11.5h-72v-295z" />
<glyph unicode="&#x3a3;" horiz-adv-x="302" d="M17 0v53l108 307l-111 284v53h270v-58h-208l112 -279l-109 -302h215v-58h-277z" />
<glyph unicode="&#x3a4;" horiz-adv-x="320" d="M191 640v-640h-63v640h-125v56h313v-56h-125z" />
<glyph unicode="&#x3a5;" horiz-adv-x="363" d="M182 375l44 140l60 181h64q-6 -17 -17 -48.5t-24.5 -71t-28.5 -82t-28.5 -81.5t-24 -71t-16.5 -48v-295h-61v295q-6 16 -16.5 48t-24 71t-28.5 81.5t-28.5 82t-24.5 71t-17 48.5h64l60 -183q3 -9 9 -28t13 -41t13 -41t9 -28h3z" />
<glyph unicode="&#x3a6;" horiz-adv-x="488" d="M214 599h-1q-21 -1 -40.5 -8t-34.5 -20.5t-24.5 -33.5t-9.5 -47v-269q0 -27 9 -47t24 -34t35 -21.5t42 -8.5v489zM275 110q48 2 79 29.5t31 81.5v269q0 27 -10 47t-25.5 33.5t-35.5 21t-39 7.5v-489zM275 0h-61v54h-1q-35 1 -65.5 12t-53.5 32t-36.5 51.5t-13.5 71.5v269 q0 40 15 70.5t39 51.5t54.5 32.5t60.5 11.5v40h62v-40q31 -2 61.5 -12.5t55 -31t39.5 -51t15 -71.5v-269q0 -41 -13.5 -71.5t-37 -51t-54.5 -31.5t-66 -13v-54z" />
<glyph unicode="&#x3a7;" horiz-adv-x="362" d="M289 -1l-108 294l-109 -294h-64l141 361l-134 336h65l101 -275l100 275h66l-137 -336l144 -361h-65z" />
<glyph unicode="&#x3a8;" horiz-adv-x="481" d="M439 310q0 -35 -13.5 -63t-36.5 -48t-53.5 -31t-64.5 -11v-157h-61v157q-34 0 -64.5 11.5t-53 31.5t-35.5 48t-13 62v386h61v-380q0 -48 30 -72t75 -26v478h61v-478q45 2 75.5 26t30.5 72v380h62v-386v0z" />
<glyph unicode="&#x3a9;" horiz-adv-x="408" d="M320 58h50v-58h-126v69q26 11 41.5 33t15.5 57v376q0 22 -5.5 42t-17.5 35.5t-30.5 24.5t-44.5 9q-35 0 -54 -14.5t-29 -36t-12 -47.5t-2 -49v-341q0 -35 15.5 -57t40.5 -32v-69h-125v58h51v2q-20 15 -31.5 42.5t-11.5 69.5v333q0 42 7.5 78t25.5 62.5t48.5 41.5t76.5 15 q48 0 78.5 -13t48.5 -38t24.5 -60.5t6.5 -80.5v-336q0 -33 -9.5 -65.5t-32.5 -49.5z" />
<glyph unicode="&#x3aa;" horiz-adv-x="183" d="M60 0v696h63v-696h-63zM139 749v63h55v-63h-55zM-11 749v63h56v-63h-56z" />
<glyph unicode="&#x3ab;" horiz-adv-x="363" d="M182 375l44 140l60 181h64q-6 -17 -17 -48.5t-24.5 -71t-28.5 -82t-28.5 -81.5t-24 -71t-16.5 -48v-295h-61v295q-6 16 -16.5 48t-24 71t-28.5 81.5t-28.5 82t-24.5 71t-17 48.5h64l60 -183q3 -9 9 -28t13 -41t13 -41t9 -28h3zM79 749v63h56v-63h-56zM229 749v63h55v-63 h-55z" />
<glyph unicode="&#x3ac;" horiz-adv-x="363" d="M178 439q-26 0 -44.5 -11.5t-27.5 -39.5q-6 -20 -7.5 -54t-1.5 -81q0 -52 2 -95t10 -64q18 -41 68 -41q18 0 33.5 7.5t26.5 20t17.5 28.5t6.5 34v204q0 41 -22 66.5t-61 25.5zM160 498q40 0 61 -13t38 -36h2v42h60v-491h-60v52h-2q-16 -29 -45.5 -43t-57.5 -14 q-45 0 -69 18t-36 47q-11 28 -13.5 67t-2.5 81v66q0 25 0.5 50.5t3.5 54.5q4 38 17.5 61.5t31.5 36t37.5 17t34.5 4.5zM141 570l67 159l59 -21l-92 -152z" />
<glyph unicode="&#x3ad;" horiz-adv-x="339" d="M175 441q-37 0 -57 -22.5t-20 -60.5q0 -35 19 -53t52 -18h60v-57h-63q-29 0 -49 -23t-20 -68q0 -47 23 -68t57 -21q35 0 55.5 21.5t20.5 58.5l63 -11q0 -30 -10.5 -53.5t-29 -39.5t-43 -24.5t-52.5 -8.5q-74 0 -109.5 33.5t-35.5 109.5q0 37 14.5 70t52.5 48v1 q-38 12 -52 39.5t-14 66.5q0 62 35.5 99.5t102.5 37.5q63 0 102 -34t39 -97q-15 -2 -31 -4t-32 -5q0 41 -20 62t-58 21zM141 570l67 159l59 -21l-92 -152z" />
<glyph unicode="&#x3ae;" horiz-adv-x="362" d="M100 440h2q17 28 44.5 43t60.5 15q31 0 52.5 -10t35.5 -27t20.5 -41t6.5 -52v-368h-63v350q0 38 -17.5 62t-60.5 24q-39 0 -60.5 -26.5t-21.5 -64.5v-345h-61v492h62v-52zM133 570l67 159l59 -21l-92 -152z" />
<glyph unicode="&#x3af;" horiz-adv-x="178" d="M140 -3q-5 -1 -9 -1h-8q-41 0 -56.5 19t-15.5 65v411h61v-399q0 -23 6.5 -30t22.5 -8zM55 570l67 159l59 -21l-92 -152z" />
<glyph unicode="&#x3b0;" horiz-adv-x="356" d="M322 492v-265q0 -27 -1 -57t-3 -53q-4 -38 -18.5 -62t-34.5 -37.5t-44 -19t-47 -5.5q-31 0 -53.5 7t-38 19.5t-25.5 29t-15 35.5q-3 12 -4.5 30.5t-2.5 40t-1 44v42.5v250h61v-268q0 -41 1 -73t6 -50q8 -24 27 -37.5t51 -13.5q25 0 45 14t29 40q4 13 6 52.5t2 82.5v254 h60zM249 587v64h55v-64h-55zM53 587v64h56v-64h-56zM129 570l68 159l59 -21l-92 -152z" />
<glyph unicode="&#x3b1;" horiz-adv-x="363" d="M178 439q-26 0 -44.5 -11.5t-27.5 -39.5q-6 -20 -7.5 -54t-1.5 -81q0 -52 2 -95t10 -64q18 -41 68 -41q18 0 33.5 7.5t26.5 20t17.5 28.5t6.5 34v204q0 41 -22 66.5t-61 25.5zM160 498q40 0 61 -13t38 -36h2v42h60v-491h-60v52h-2q-16 -29 -45.5 -43t-57.5 -14 q-45 0 -69 18t-36 47q-11 28 -13.5 67t-2.5 81v66q0 25 0.5 50.5t3.5 54.5q4 38 17.5 61.5t31.5 36t37.5 17t34.5 4.5z" />
<glyph unicode="&#x3b2;" horiz-adv-x="359" d="M99 140q0 -36 18 -61t59 -25q31 0 48 12.5t25.5 35t10.5 54t2 69.5q0 41 -3 70.5t-12 48.5t-24.5 28t-39.5 9h-33v55h26q46 0 61 30.5t15 83.5q0 62 -18.5 90t-58.5 28q-36 0 -56 -24t-20 -56v-448zM39 586q0 65 37.5 102.5t100.5 37.5q32 0 57.5 -9.5t43.5 -30.5 t27.5 -54t9.5 -80q0 -60 -15.5 -92.5t-49.5 -45.5v-3q21 -8 35.5 -18t23.5 -29.5t13 -51.5t4 -83q0 -49 -3.5 -92t-17 -74.5t-39.5 -50t-72 -18.5q-34 0 -55.5 11.5t-37.5 34.5l-2 -1v-183h-60v730z" />
<glyph unicode="&#x3b3;" horiz-adv-x="331" d="M202 -194h-61v208q-12 51 -23.5 98.5t-23.5 94.5t-24 94.5t-26 99.5q-6 23 -12 29.5t-20 6.5q-3 0 -5 -1l-4 55q9 3 18 4t17 1q24 0 36.5 -11t18.5 -33q10 -33 20 -73t20.5 -82.5t20 -85t17.5 -79.5h5q20 88 41 177t45 183h62q-31 -120 -61.5 -237t-60.5 -239v-210z" />
<glyph unicode="&#x3b4;" horiz-adv-x="353" d="M323 290v-41t-1 -40q-1 -23 -1 -45t-3 -48q-4 -37 -18.5 -61t-34.5 -37.5t-44.5 -19t-47.5 -5.5q-57 0 -85.5 20.5t-41.5 56.5q-10 31 -11.5 76.5t-1.5 92.5q0 41 2.5 84t18.5 75q12 23 32.5 40t46.5 26q-41 29 -56.5 56t-15.5 67q0 31 9 56.5t29 43.5t51.5 28t77.5 10 q13 0 32.5 -1t39.5 -3l-3 -51q-33 3 -59 3q-38 0 -61 -6.5t-35.5 -18t-17 -27.5t-4.5 -35q0 -27 22 -50.5t64 -46.5q39 -22 62.5 -41t35.5 -41t15.5 -50t3.5 -67zM182 431q-25 -5 -46.5 -21t-29.5 -38q-9 -19 -10.5 -47.5t-1.5 -72.5v-31q0 -45 1.5 -75t8.5 -50 q8 -23 25.5 -35t49.5 -12q59 0 75 57q5 18 6.5 47.5t2.5 67.5v76q0 43 -9 70q-8 24 -25 39t-47 25z" />
<glyph unicode="&#x3b5;" horiz-adv-x="339" d="M175 441q-37 0 -57 -22.5t-20 -60.5q0 -35 19 -53t52 -18h60v-57h-63q-29 0 -49 -23t-20 -68q0 -47 23 -68t57 -21q35 0 55.5 21.5t20.5 58.5l63 -11q0 -30 -10.5 -53.5t-29 -39.5t-43 -24.5t-52.5 -8.5q-74 0 -109.5 33.5t-35.5 109.5q0 37 14.5 70t52.5 48v1 q-38 12 -52 39.5t-14 66.5q0 62 35.5 99.5t102.5 37.5q63 0 102 -34t39 -97q-15 -2 -31 -4t-32 -5q0 41 -20 62t-58 21z" />
<glyph unicode="&#x3b6;" horiz-adv-x="331" d="M238 436h-196v55h282v-54q-108 -82 -170 -158t-62 -134q0 -17 5.5 -30t19 -24t36 -22t55.5 -24q50 -20 73 -38.5t23 -48.5q0 -21 -13.5 -45.5t-49.5 -67.5l-42 27q22 32 30 47.5t8 25.5q0 14 -12 24t-35 18q-37 13 -66.5 25t-50 28.5t-31.5 39t-11 57.5q0 31 11 65 t35.5 71.5t64 77.5t96.5 82v3z" />
<glyph unicode="&#x3b7;" horiz-adv-x="362" d="M100 440h2q17 28 44.5 43t60.5 15q31 0 52.5 -10t35.5 -27t20.5 -41t6.5 -52v-368h-63v350q0 38 -17.5 62t-60.5 24q-39 0 -60.5 -26.5t-21.5 -64.5v-345h-61v492h62v-52z" />
<glyph unicode="&#x3b8;" horiz-adv-x="355" d="M321 227q0 -28 -1 -54.5t-4 -55.5q-4 -38 -18 -62t-34 -38t-43.5 -19.5t-46.5 -5.5q-31 0 -53.5 7.5t-38.5 20t-25.5 29t-14.5 35.5q-3 12 -4.5 30.5t-2 40t-0.5 43.5v42v228q0 26 0.5 53t2.5 51t4.5 44t7.5 32q13 36 44.5 57.5t85.5 21.5q57 0 86.5 -23t42.5 -55 q6 -17 8.5 -39.5t3 -48t0.5 -51.5v-49v-234zM104 100q8 -24 25.5 -37.5t49.5 -13.5q25 0 44.5 14t27.5 40q2 6 4 20t3.5 32.5t2 40t0.5 42.5v112h-165v-127q0 -41 1 -73t7 -50zM261 466q0 44 -2 88t-7 64q-8 26 -27 39t-46 13q-22 0 -41.5 -10t-30.5 -36q-8 -20 -9.5 -64 t-1.5 -104v-57h165v67z" />
<glyph unicode="&#x3b9;" horiz-adv-x="178" d="M140 -3q-5 -1 -9 -1h-8q-41 0 -56.5 19t-15.5 65v411h61v-399q0 -23 6.5 -30t22.5 -8z" />
<glyph unicode="&#x3ba;" horiz-adv-x="358" d="M104 229q11 18 33.5 54t46.5 76.5t46.5 77t33.5 54.5h68l-114 -186q6 -13 16.5 -37t23.5 -53.5t27 -62t27 -62t23.5 -53.5t16.5 -37h-67l-106 251q-6 -9 -16.5 -26.5t-21.5 -37t-21.5 -37.5t-16.5 -27v-123h-61v491h61v-262h1z" />
<glyph unicode="&#x3bb;" horiz-adv-x="336" d="M48 720q22 5 35 5q25 0 42.5 -11t28.5 -37q8 -15 14 -41q3 -14 13 -56.5t23 -99t28 -120t27.5 -119.5t22 -96t11.5 -50q6 -26 13 -35.5t24 -9.5v-25.5t1 -25.5q-6 -1 -11 -1.5t-10 -0.5q-29 0 -44.5 13t-23.5 48l-32 140q-11 48 -21 91.5t-17 70.5h-2l-45 -161l-57 -199 h-62l139 469l-33 147q-6 26 -15.5 39t-33.5 13q-7 0 -12 -1z" />
<glyph unicode="&#x3bc;" horiz-adv-x="375" d="M268 51h-2q-14 -26 -40.5 -40.5t-55.5 -14.5q-39 0 -62 20v-211h-61v687h62v-350q0 -38 17.5 -62t60.5 -24q39 0 60.5 26t21.5 65v344h61v-491h-62v51z" />
<glyph unicode="&#x3bd;" horiz-adv-x="324" d="M196 0h-70l-121 492h65q3 -14 10 -43t14 -61.5t14 -62t10 -42.5t9 -40.5t12.5 -58t12.5 -58t9 -40.5h3q3 13 8.5 41t12.5 58.5t13 58.5t9 41t9.5 42t13.5 61t13.5 61t9.5 43h65z" />
<glyph unicode="&#x3be;" horiz-adv-x="302" d="M34 543q0 38 6 71t22.5 58t44 39t71.5 14q63 0 98 -30t39 -87l-60 -13q-2 35 -23 55.5t-54 20.5q-41 0 -62 -29.5t-21 -96.5q0 -26 3 -49t13 -40t29 -27.5t52 -10.5h80v-53h-80q-30 0 -49 -12t-30.5 -33.5t-15.5 -51t-4 -64.5q0 -40 5.5 -64.5t18.5 -40.5t35.5 -28 t57.5 -27q52 -23 73.5 -39.5t21.5 -43.5q0 -19 -11 -47.5t-43 -73.5q-12 7 -23 13.5t-23 14.5q19 32 26 48t7 26q0 17 -26 31.5t-61 29.5q-37 16 -60 33.5t-35.5 40t-17 53.5t-4.5 74q0 72 14.5 119.5t60.5 65.5v1q-26 7 -40.5 23t-22.5 36.5t-10 44.5t-2 49z" />
<glyph unicode="&#x3bf;" horiz-adv-x="356" d="M180 498q56 0 86.5 -22t42.5 -55q9 -26 11.5 -66t2.5 -80v-49q0 -27 -1 -53.5t-4 -56.5q-4 -37 -18.5 -61t-35 -37.5t-44.5 -19t-47 -5.5q-61 0 -91 26.5t-40 64.5q-3 12 -5 30.5t-3 40t-1 43.5v42q0 26 0.5 52.5t2.5 50.5t4.5 43.5t7.5 31.5q13 36 45.5 58t86.5 22z M179 443q-23 0 -43 -10t-31 -36q-7 -18 -9 -55t-2 -88v-32q0 -41 1 -73t7 -49q15 -51 77 -51q29 0 49.5 17t27.5 46q3 18 5 53t2 73q0 21 -0.5 44t-1 44t-2.5 38t-5 26q-8 26 -28 39.5t-47 13.5z" />
<glyph unicode="&#x3c0;" horiz-adv-x="376" d="M268 0v438h-159v-438h-62v492h283v-492h-62z" />
<glyph unicode="&#x3c1;" horiz-adv-x="357" d="M178 49q26 0 46.5 14t29.5 40q2 6 4 19.5t3 32t1.5 40t0.5 43.5q0 21 -0.5 44t-1 44t-2.5 38t-5 26q-8 26 -27.5 39.5t-48.5 13.5q-56 0 -75 -50q-4 -12 -6 -32.5t-2.5 -44.5t-0.5 -50v-48q0 -23 0.5 -45.5t1.5 -42.5q2 -35 21.5 -58t60.5 -23zM193 -6q-27 0 -52.5 11.5 t-42.5 35.5h-2v-236h-62v431q0 24 0.5 50t2 50.5t4 45t6.5 34.5q13 38 45.5 60t87.5 22q56 0 86 -22.5t43 -54.5q5 -15 7.5 -34.5t4 -42t1.5 -46v-45.5v-27q0 -27 -0.5 -51.5t-2.5 -50.5q-5 -58 -37.5 -94t-88.5 -36z" />
<glyph unicode="&#x3c2;" horiz-adv-x="324" d="M183 498q69 0 101.5 -35t32.5 -95q-16 -3 -31.5 -5t-31.5 -4q0 40 -19 62t-55 22q-23 0 -41 -11t-29 -36q-8 -19 -9.5 -60t-1.5 -101v-43q0 -20 2.5 -36t10 -30t20 -26t33.5 -25q13 -8 25.5 -14.5t24.5 -13.5q38 -20 53 -37t15 -43q0 -32 -19.5 -64t-37.5 -58l-46 27 q20 34 28 51.5t8 28.5q0 14 -9.5 23.5t-30.5 20.5l-23 12q-31 16 -53 29.5t-35.5 29t-19.5 35.5t-6 48v95q0 56 3 102t12 73q14 38 44 58t85 20z" />
<glyph unicode="&#x3c3;" horiz-adv-x="366" d="M286 439q0 -1 -0.5 -1.5t-0.5 -1.5q9 -6 14.5 -13.5t9.5 -15.5q7 -14 10 -31.5t3 -35.5q2 -23 2 -46v-46v-22q0 -27 -1 -53.5t-4 -56.5q-4 -37 -18.5 -61t-34.5 -37.5t-44 -19t-47 -5.5q-61 0 -91 26.5t-41 64.5q-3 12 -4.5 30.5t-2.5 40t-1 43.5v42q0 52 3 100t11 71 q15 42 47.5 61t84.5 19h176v-52h-71zM181 432q-23 0 -43 -10t-31 -36q-7 -17 -9.5 -50t-2.5 -83v-31q0 -41 1.5 -72.5t6.5 -48.5q17 -51 78 -51q23 0 41 11t28 31q3 7 7 21q4 18 5.5 52.5t1.5 72.5q0 43 -1.5 82.5t-6.5 58.5q-8 27 -28 40t-47 13z" />
<glyph unicode="&#x3c4;" horiz-adv-x="242" d="M12 439v53h222v-53h-85v-313q0 -38 15.5 -53.5t45.5 -15.5h11v-57h-24q-58 0 -84 32t-26 78v329h-75z" />
<glyph unicode="&#x3c5;" horiz-adv-x="356" d="M322 492v-265q0 -27 -1 -57t-3 -53q-4 -38 -18.5 -62t-34.5 -37.5t-44 -19t-47 -5.5q-31 0 -53.5 7t-38 19.5t-25.5 29t-15 35.5q-3 12 -4.5 30.5t-2.5 40t-1 44v42.5v250h61v-268q0 -41 1 -73t6 -50q8 -24 27 -37.5t51 -13.5q25 0 45 14t29 40q4 13 6 52.5t2 82.5v254 h60z" />
<glyph unicode="&#x3c6;" horiz-adv-x="450" d="M255 49q43 5 67.5 22t29.5 55q3 19 4 48t1 64q0 21 -0.5 43.5t-1 42.5t-2.5 36.5t-5 26.5q-8 29 -33 41.5t-60 14.5v-394zM416 204q0 -20 -1 -41t-3 -41q-4 -37 -19.5 -61t-37.5 -39t-48 -21.5t-52 -7.5v-188h-61v188q-70 3 -103.5 31t-44.5 66q-3 12 -5 29.5t-2.5 38 t-1 42t-0.5 41.5q0 26 0.5 52.5t2.5 50.5t4.5 44t7.5 32q8 23 26 41t44 27q5 -14 10 -27t10 -27q-11 -5 -19 -12.5t-14 -21.5q-8 -20 -9 -66t-2 -111q0 -41 1 -72.5t7 -48.5q7 -25 31.5 -37.5t56.5 -15.5v449h69q31 0 55 -7t41 -18t28 -26t17 -31q8 -23 10 -57.5t2 -69.5 v-85z" />
<glyph unicode="&#x3c7;" horiz-adv-x="314" d="M240 0l-82 198l-85 -198h-67l119 252l-114 240h69l78 -187l76 187h71l-112 -240l116 -252h-69z" />
<glyph unicode="&#x3c8;" horiz-adv-x="453" d="M416 491v-354q0 -34 -12.5 -60.5t-34 -44.5t-50.5 -28t-62 -11v-188h-61v188q-33 1 -61.5 10t-49.5 26t-33 43t-12 61v358h60v-331q0 -21 3.5 -40.5t13.5 -35.5t29 -25.5t50 -9.5v442h61v-442h1q18 1 35.5 7t31 18t22 29.5t8.5 43.5v344h61z" />
<glyph unicode="&#x3c9;" horiz-adv-x="540" d="M370 -6q-29 0 -58 13t-43 41h-4q-16 -29 -43 -42t-56 -13q-59 0 -87.5 26.5t-38.5 64.5q-5 18 -6.5 55.5t-1.5 89.5q0 63 2 115t11 76q12 33 39.5 53.5t74.5 24.5v-57q-18 -2 -33.5 -12.5t-23.5 -31.5q-8 -20 -8.5 -65t-1.5 -110q0 -41 1.5 -74t6.5 -50q8 -24 25 -37.5 t41 -13.5q34 0 53 22.5t19 54.5v210h60v-210q0 -32 18 -54.5t54 -22.5q28 0 47 13.5t26 39.5q4 17 5 52.5t1 73.5q-1 55 -0.5 98t-7.5 70q-5 20 -22 32.5t-39 14.5l1 57q51 -3 78 -24.5t38 -53.5q5 -13 7.5 -33t4 -44t1.5 -50v-51q-1 -54 -2.5 -89t-5.5 -58 q-8 -48 -40.5 -74.5t-91.5 -26.5z" />
<glyph unicode="&#x3ca;" horiz-adv-x="178" d="M140 -3q-5 -1 -9 -1h-8q-41 0 -56.5 19t-15.5 65v411h61v-399q0 -23 6.5 -30t22.5 -8zM133 587v64h55v-64h-55zM-18 587v64h56v-64h-56z" />
<glyph unicode="&#x3cb;" horiz-adv-x="356" d="M322 492v-265q0 -27 -1 -57t-3 -53q-4 -38 -18.5 -62t-34.5 -37.5t-44 -19t-47 -5.5q-31 0 -53.5 7t-38 19.5t-25.5 29t-15 35.5q-3 12 -4.5 30.5t-2.5 40t-1 44v42.5v250h61v-268q0 -41 1 -73t6 -50q8 -24 27 -37.5t51 -13.5q25 0 45 14t29 40q4 13 6 52.5t2 82.5v254 h60zM224 587v64h55v-64h-55zM73 587v64h56v-64h-56z" />
<glyph unicode="&#x3cc;" horiz-adv-x="356" d="M180 498q56 0 86.5 -22t42.5 -55q9 -26 11.5 -66t2.5 -80v-49q0 -27 -1 -53.5t-4 -56.5q-4 -37 -18.5 -61t-35 -37.5t-44.5 -19t-47 -5.5q-61 0 -91 26.5t-40 64.5q-3 12 -5 30.5t-3 40t-1 43.5v42q0 26 0.5 52.5t2.5 50.5t4.5 43.5t7.5 31.5q13 36 45.5 58t86.5 22z M179 443q-23 0 -43 -10t-31 -36q-7 -18 -9 -55t-2 -88v-32q0 -41 1 -73t7 -49q15 -51 77 -51q29 0 49.5 17t27.5 46q3 18 5 53t2 73q0 21 -0.5 44t-1 44t-2.5 38t-5 26q-8 26 -28 39.5t-47 13.5zM147 570l67 159l59 -21l-92 -152z" />
<glyph unicode="&#x3cd;" horiz-adv-x="356" d="M322 492v-265q0 -27 -1 -57t-3 -53q-4 -38 -18.5 -62t-34.5 -37.5t-44 -19t-47 -5.5q-31 0 -53.5 7t-38 19.5t-25.5 29t-15 35.5q-3 12 -4.5 30.5t-2.5 40t-1 44v42.5v250h61v-268q0 -41 1 -73t6 -50q8 -24 27 -37.5t51 -13.5q25 0 45 14t29 40q4 13 6 52.5t2 82.5v254 h60zM141 570l67 159l59 -21l-92 -152z" />
<glyph unicode="&#x3ce;" horiz-adv-x="540" d="M370 -6q-29 0 -58 13t-43 41h-4q-16 -29 -43 -42t-56 -13q-59 0 -87.5 26.5t-38.5 64.5q-5 18 -6.5 55.5t-1.5 89.5q0 63 2 115t11 76q12 33 39.5 53.5t74.5 24.5v-57q-18 -2 -33.5 -12.5t-23.5 -31.5q-8 -20 -8.5 -65t-1.5 -110q0 -41 1.5 -74t6.5 -50q8 -24 25 -37.5 t41 -13.5q34 0 53 22.5t19 54.5v210h60v-210q0 -32 18 -54.5t54 -22.5q28 0 47 13.5t26 39.5q4 17 5 52.5t1 73.5q-1 55 -0.5 98t-7.5 70q-5 20 -22 32.5t-39 14.5l1 57q51 -3 78 -24.5t38 -53.5q5 -13 7.5 -33t4 -44t1.5 -50v-51q-1 -54 -2.5 -89t-5.5 -58 q-8 -48 -40.5 -74.5t-91.5 -26.5zM239 570l67 159l59 -21l-92 -152z" />
<glyph unicode="&#x401;" horiz-adv-x="361" d="M53 0v696h291v-57h-230v-255h201v-57h-201v-271h230v-56h-291zM245 749v63h55v-63h-55zM95 749v63h56v-63h-56z" />
<glyph unicode="&#x402;" horiz-adv-x="486" d="M306 469q37 0 62 -11.5t40 -31t21.5 -46t6.5 -57.5v-162q0 -93 -35 -140.5t-116 -47.5v53q27 1 44.5 9.5t27.5 24t13.5 36.5t3.5 47v169q0 44 -17.5 71t-65.5 27q-22 0 -49.5 -11t-51.5 -34v-365h-62v640h-113v56h353v-56h-178v-210h2q29 22 59 30.5t55 8.5z" />
<glyph unicode="&#x403;" horiz-adv-x="354" d="M114 639v-639h-61v696h280v-57h-219zM130 751l135 109l40 -47l-152 -91z" />
<glyph unicode="&#x404;" horiz-adv-x="378" d="M355 125q-8 -66 -48.5 -99t-104.5 -33q-76 0 -115.5 41.5t-39.5 119.5v367q0 37 8 70t26 57.5t47.5 39t73.5 14.5q67 0 105.5 -32t45.5 -95l-61 -15q-2 43 -26.5 64t-64.5 21q-26 0 -43.5 -10t-28.5 -26.5t-16 -37.5t-5 -43v-143h168v-60h-168v-168q0 -20 5 -39.5 t16 -34.5t28.5 -24t43.5 -9q37 0 62 20.5t30 67.5z" />
<glyph unicode="&#x405;" horiz-adv-x="386" d="M354 186q0 -44 -8 -79.5t-27 -60.5t-50 -39t-76 -14q-42 0 -72 12t-49.5 32.5t-29 48.5t-9.5 61l62 13q0 -21 5 -40.5t16.5 -34.5t30 -24t46.5 -9q34 0 53.5 11t29.5 29t13 42t3 51q0 33 -3 54.5t-14 37t-31.5 28.5t-55.5 28q-50 22 -79.5 43t-45 43.5t-20.5 48t-5 55.5 q0 39 9.5 72t29.5 56.5t50 37t71 13.5q45 0 75 -13.5t48 -35.5t25.5 -48.5t7.5 -51.5l-62 -15q0 47 -21.5 76.5t-75.5 29.5q-30 0 -48.5 -11.5t-29 -29t-14 -38.5t-3.5 -41q0 -23 4 -41t16.5 -34t36.5 -31t65 -32q45 -18 71 -37.5t39.5 -43t17.5 -52.5t4 -67z" />
<glyph unicode="&#x406;" horiz-adv-x="183" d="M60 0v696h63v-696h-63z" />
<glyph unicode="&#x407;" horiz-adv-x="183" d="M60 0v696h63v-696h-63zM139 766v64h55v-64h-55zM-12 766v64h56v-64h-56z" />
<glyph unicode="&#x408;" horiz-adv-x="333" d="M265 696v-532q0 -83 -39.5 -127t-119.5 -44q-34 0 -65.5 12t-50.5 38l42 40q13 -14 34 -24t41 -10q41 0 69 26t28 83v538h61z" />
<glyph unicode="&#x409;" horiz-adv-x="636" d="M293 639h-146v-293q0 -94 -5.5 -155t-19 -101t-35.5 -64.5t-55 -44.5q-2 2 -6 8.5t-8.5 13.5t-8.5 13.5t-5 8.5q21 15 37 32t27.5 47t17 78t5.5 126v388h263v-294h73q54 0 89.5 -14.5t55.5 -40.5t28 -62t8 -79q0 -46 -8 -84t-27.5 -65t-54 -42t-86.5 -15h-139v639z M354 58h72q38 0 62 11.5t37.5 31t18 46.5t4.5 57q0 31 -5.5 57t-19.5 44.5t-38 28.5t-61 10h-70v-286z" />
<glyph unicode="&#x40a;" horiz-adv-x="638" d="M295 0v334h-181v-334h-61v696h61v-304h181v304h61v-304h73q55 0 90 -13.5t55 -38.5t28 -59.5t8 -77.5q0 -46 -8 -83.5t-27.5 -64t-54 -41t-86.5 -14.5h-139zM356 58h72q38 0 62 11t37.5 30t18 45t4.5 57t-5.5 55.5t-19.5 41.5t-38 26.5t-61 9.5h-70v-276z" />
<glyph unicode="&#x40b;" horiz-adv-x="486" d="M374 0v316q0 42 -17.5 68t-65.5 26q-24 0 -51.5 -12t-48.5 -33v-365h-63v640h-114v56h353v-56h-176v-209h2q29 22 58.5 30t54.5 8q69 0 100 -37t31 -99v-333h-63z" />
<glyph unicode="&#x40c;" horiz-adv-x="415" d="M53 0v696h60v-309h56q16 0 33.5 3.5t34 15t30 32t21.5 54.5l49 204h56l-45 -202q-12 -51 -34.5 -86t-55.5 -46q43 -12 64.5 -48t32.5 -88l50 -226h-62l-47 218q-8 35 -20.5 56.5t-28 33.5t-34 16t-37.5 4h-63v-328h-60zM160 751l135 109l40 -47l-152 -91z" />
<glyph unicode="&#x40e;" horiz-adv-x="372" d="M194 267l107 429h59l-145 -545q-14 -53 -29.5 -84t-32 -46.5t-35 -20t-37.5 -5.5h-31v50h29q23 0 43 21t33 71l10 40l-155 518h61l120 -428h3zM118 817q4 -26 24.5 -48t50.5 -22q32 0 52.5 21t23.5 49h50q-2 -19 -10 -39.5t-23.5 -38t-38.5 -28.5t-54 -11q-33 0 -56.5 11 t-38.5 28.5t-22.5 38t-8.5 39.5h51z" />
<glyph unicode="&#x40f;" horiz-adv-x="411" d="M359 696v-696h-124l1 -142h-61l1 142h-123v696h61v-637h183v637h62z" />
<glyph unicode="&#x410;" horiz-adv-x="386" d="M316 0l-37 168h-173l-36 -168h-58l150 696h62l153 -696h-61zM191 594l-33 -168l-42 -200h152l-42 202l-32 166h-3z" />
<glyph unicode="&#x411;" horiz-adv-x="391" d="M109 59h73q38 0 61.5 11.5t37 31t18 46t4.5 57.5t-5.5 56.5t-19.5 44t-37.5 28.5t-60.5 10h-71v-285zM109 402h74q54 0 89.5 -14.5t55.5 -40.5t28 -62t8 -79q0 -46 -8 -84t-28 -65t-54 -42t-87 -15h-139v696h277v-57h-216v-237z" />
<glyph unicode="&#x412;" horiz-adv-x="412" d="M289 365q46 -14 63.5 -57.5t17.5 -103.5q0 -109 -45 -156.5t-133 -47.5h-139v696h146q45 0 76.5 -12t51 -35t28 -56.5t8.5 -75.5q0 -54 -16 -90t-58 -58v-4zM310 209q0 63 -24.5 97t-84.5 34h-87v-284h82q36 0 58.5 12t34.5 33t16.5 49t4.5 59zM303 518q0 59 -26 90.5 t-89 31.5h-74v-246h82q59 0 83 32t24 92z" />
<glyph unicode="&#x413;" horiz-adv-x="354" d="M114 639v-639h-61v696h280v-57h-219z" />
<glyph unicode="&#x414;" horiz-adv-x="458" d="M59 -132h-55v184l35 4q15 15 26 32.5t17.5 44.5t10 66.5t5.5 97.5l10 399h298v-642h37v-186h-55v132h-329v-132zM345 54v587h-181l-9 -344q-2 -86 -11 -144t-34 -99h235z" />
<glyph unicode="&#x415;" horiz-adv-x="361" d="M53 0v696h291v-57h-230v-255h201v-57h-201v-271h230v-56h-291z" />
<glyph unicode="&#x416;" horiz-adv-x="655" d="M296 0v328h-48q-19 0 -37.5 -4t-34 -16t-28.5 -33.5t-20 -56.5l-47 -218h-61l50 226q11 52 32.5 88t63.5 48q-33 11 -55.5 46t-33.5 86l-46 202h56l49 -204q8 -34 21.5 -54.5t30 -32t34 -15t33.5 -3.5h41v309h62v-309h41q16 0 33.5 3.5t34 15t30 32t21.5 54.5l49 204h56 l-45 -202q-12 -51 -34.5 -86t-55.5 -46q43 -12 64.5 -48t32.5 -88l50 -226h-62l-47 218q-8 35 -20.5 56.5t-28 33.5t-33.5 16t-37 4h-49v-328h-62z" />
<glyph unicode="&#x417;" horiz-adv-x="377" d="M261 214q0 122 -93 122h-36v55h41q32 0 50 11t27 30t11 44t2 54q0 32 -7.5 54t-20 35.5t-30 19.5t-37.5 6q-45 0 -70 -29t-25 -80l-59 14q1 38 14 66.5t34 47.5t49 28.5t59 9.5q65 0 104.5 -31.5t46.5 -105.5q2 -10 2 -20.5v-22.5q0 -18 -2 -41.5t-9 -46t-19 -41 t-33 -27.5v-2q20 -9 32 -24t19 -33t9 -37.5t3 -37.5v-38v-22.5t-1 -21.5q-5 -80 -47 -118.5t-109 -38.5q-32 0 -59.5 8.5t-48.5 27t-33 46.5t-12 67v4l59 12q0 -61 26 -85t68 -24q21 0 38 6.5t30 22t20 41t7 63.5v32v0z" />
<glyph unicode="&#x418;" horiz-adv-x="427" d="M313 547l-205 -547h-57v696h60v-548l4 -1l203 549h59v-696h-61v547h-3z" />
<glyph unicode="&#x419;" horiz-adv-x="427" d="M131 831q4 -26 24.5 -48t50.5 -22q32 0 52.5 21t23.5 49h50q-2 -19 -10 -39.5t-23.5 -38t-38.5 -28.5t-54 -11q-33 0 -56.5 11t-38.5 28.5t-22.5 38t-8.5 39.5h51zM313 547l-205 -547h-57v696h60v-548l4 -1l203 549h59v-696h-61v547h-3z" />
<glyph unicode="&#x41a;" horiz-adv-x="415" d="M53 0v696h60v-309h56q16 0 33.5 3.5t34 15t30 32t21.5 54.5l49 204h56l-45 -202q-12 -51 -34.5 -86t-55.5 -46q43 -12 64.5 -48t32.5 -88l50 -226h-62l-47 218q-8 35 -20.5 56.5t-28 33.5t-34 16t-37.5 4h-63v-328h-60z" />
<glyph unicode="&#x41b;" horiz-adv-x="431" d="M147 346q0 -94 -5.5 -155t-18.5 -101t-35.5 -64.5t-55.5 -44.5l-28 45q21 15 37 32.5t27.5 47.5t17 78t5.5 124v388h287v-696h-61v639h-170v-293z" />
<glyph unicode="&#x41c;" horiz-adv-x="548" d="M431 526q-5 -12 -14 -35.5t-18.5 -49.5t-19 -49.5t-13.5 -35.5q-1 -3 -6.5 -17.5t-13.5 -34.5t-17.5 -43t-17.5 -43t-14 -34.5t-7 -17.5h-34q-5 13 -15.5 39t-22 55t-22 55t-15.5 39l-64 170h-4v-524h-61v696h62q6 -15 18 -46t25 -65.5t25 -65.5t17 -46l73 -194h3 q5 14 15 41t21.5 57t22 57.5t15.5 41.5q1 3 7.5 20t15.5 40t19.5 50t19 50t15 39.5t7.5 20.5h63v-696h-61v526h-4z" />
<glyph unicode="&#x41d;" horiz-adv-x="420" d="M305 0v329h-191v-329h-61v696h61v-313h191v313h62v-696h-62z" />
<glyph unicode="&#x41e;" horiz-adv-x="409" d="M363 172q0 -88 -39.5 -133.5t-119.5 -45.5t-118.5 43t-38.5 120v366q0 37 8 70t26.5 57.5t49 38.5t74.5 14q45 0 75.5 -12.5t48.5 -36t26 -56t8 -72.5v-353zM301 534q0 22 -5 42t-16 35.5t-29.5 25t-45.5 9.5q-29 0 -48 -12.5t-30 -31.5t-15.5 -41.5t-4.5 -42.5v-363 q0 -20 5.5 -39t17 -34t30 -24t44.5 -9q53 0 75 34t22 82v369z" />
<glyph unicode="&#x41f;" horiz-adv-x="411" d="M297 0v638h-183v-638h-61v696h306v-696h-62z" />
<glyph unicode="&#x420;" horiz-adv-x="391" d="M192 696q52 0 86.5 -14t54 -40.5t27.5 -64t8 -83.5q0 -44 -8 -82t-28 -65.5t-55.5 -43t-89.5 -15.5h-73v-288h-61v696h139zM114 345h70q38 0 62 10.5t38 30t19 47t5 60.5q0 31 -4.5 58t-18 46.5t-37.5 31t-62 11.5h-72v-295z" />
<glyph unicode="&#x421;" horiz-adv-x="384" d="M202 702q73 0 113 -40.5t40 -113.5l-62 -12q1 54 -23 81.5t-69 27.5q-26 0 -43.5 -10t-28.5 -26.5t-16 -37.5t-5 -43v-371q0 -20 5 -39.5t16 -34.5t28.5 -24t43.5 -9q41 0 66 25.5t26 83.5l63 -11q-2 -77 -43.5 -116t-110.5 -39q-76 0 -115.5 41.5t-39.5 119.5v367 q0 37 8 70t26 57.5t47.5 39t73.5 14.5z" />
<glyph unicode="&#x422;" horiz-adv-x="320" d="M191 640v-640h-63v640h-125v56h313v-56h-125z" />
<glyph unicode="&#x423;" horiz-adv-x="372" d="M194 267l107 429h59l-145 -545q-14 -53 -29.5 -84t-32 -46.5t-35 -20t-37.5 -5.5h-31v50h29q23 0 43 21t33 71l10 40l-155 518h61l120 -428h3z" />
<glyph unicode="&#x424;" horiz-adv-x="488" d="M214 599h-1q-21 -1 -40.5 -8t-34.5 -20.5t-24.5 -33.5t-9.5 -47v-269q0 -27 9 -47t24 -34t35 -21.5t42 -8.5v489zM275 110q48 2 79 29.5t31 81.5v269q0 27 -10 47t-25.5 33.5t-35.5 21t-39 7.5v-489zM275 0h-61v54h-1q-35 1 -65.5 12t-53.5 32t-36.5 51.5t-13.5 71.5v269 q0 40 15 70.5t39 51.5t54.5 32.5t60.5 11.5v40h62v-40q31 -2 61.5 -12.5t55 -31t39.5 -51t15 -71.5v-269q0 -41 -13.5 -71.5t-37 -51t-54.5 -31.5t-66 -13v-54z" />
<glyph unicode="&#x425;" horiz-adv-x="362" d="M289 -1l-108 294l-109 -294h-64l141 361l-134 336h65l101 -275l100 275h66l-137 -336l144 -361h-65z" />
<glyph unicode="&#x426;" horiz-adv-x="418" d="M364 696v-638h35v-189h-55v131h-291v696h61v-638h188v638h62z" />
<glyph unicode="&#x427;" horiz-adv-x="398" d="M94 696v-244q0 -62 26 -86t84 -24q16 0 39 4t43 12v338h62v-696h-62v309q-20 -8 -47 -12t-49 -4q-36 0 -64.5 8t-48.5 26.5t-31 49t-11 74.5v245h59z" />
<glyph unicode="&#x428;" horiz-adv-x="608" d="M555 696v-696h-502v696h61v-637h158v637h62v-637h159v637h62z" />
<glyph unicode="&#x429;" horiz-adv-x="613" d="M555 59h37v-190h-55v131h-484v696h61v-637h158v637h62v-637h159v637h62v-637z" />
<glyph unicode="&#x42a;" horiz-adv-x="513" d="M170 0v639h-157v57h219v-294h73q54 0 89.5 -14.5t55.5 -40.5t28 -62t8 -79q0 -46 -8 -84t-28 -65t-54 -42t-87 -15h-139zM232 59h72q38 0 62 11.5t37.5 31t18 46t4.5 57.5t-5.5 56.5t-19.5 44t-38 28.5t-61 10h-70v-285z" />
<glyph unicode="&#x42b;" horiz-adv-x="540" d="M51 0v696h61v-294h74q54 0 89.5 -14.5t55.5 -40.5t28 -62t8 -79q0 -46 -8 -84t-28 -65t-54 -42t-87 -15h-139zM112 58h73q38 0 61.5 11.5t37 31t18 46.5t4.5 57q0 31 -5.5 57t-19.5 44.5t-37.5 28.5t-60.5 10h-71v-286zM422 0v696h62v-696h-62z" />
<glyph unicode="&#x42c;" horiz-adv-x="391" d="M48 0v696h61v-294h73q54 0 89.5 -14.5t55.5 -40.5t28 -62t8 -79q0 -46 -8 -84t-27.5 -65t-54 -42t-86.5 -15h-139zM109 58h72q38 0 62 11.5t37.5 31t18 46.5t4.5 57q0 31 -5.5 57t-19.5 44.5t-38 28.5t-61 10h-70v-286z" />
<glyph unicode="&#x42d;" horiz-adv-x="383" d="M83 138q5 -47 29.5 -68.5t62.5 -21.5q27 0 44.5 10t28.5 26.5t15.5 37.5t4.5 44v160h-168v60h168v150q0 109 -93 109q-39 0 -64 -24t-30 -68l-60 14q8 65 49 100t109 35q42 0 71 -13t46.5 -36t25.5 -55t8 -70v-364q0 -88 -40 -129.5t-117 -41.5q-64 0 -104 33t-48 99z " />
<glyph unicode="&#x42e;" horiz-adv-x="548" d="M502 168q0 -87 -39.5 -131t-113.5 -44q-73 0 -112.5 42t-39.5 118v176h-83v-329h-61v696h61v-313h83v143q0 37 8.5 69t26.5 56t47 37.5t70 13.5q42 0 71 -12.5t47 -35t26.5 -55t8.5 -72.5v-359zM441 534q0 22 -5 42t-16 35.5t-28.5 25t-42.5 9.5q-27 0 -45 -12 t-28.5 -30.5t-14.5 -41t-4 -42.5v-366q0 -20 5.5 -39t16.5 -33.5t28.5 -23.5t40.5 -9q48 0 70.5 33.5t22.5 81.5v370z" />
<glyph unicode="&#x42f;" horiz-adv-x="416" d="M22 0l43 217q8 41 24 73.5t51 49.5q-53 15 -72.5 56.5t-19.5 101.5q0 94 41.5 146t132.5 52h142v-696h-61v319h-67q-16 0 -33 -4t-32 -16t-27 -33.5t-19 -57.5l-41 -208h-62zM109 498q0 -65 30 -95t88 -30h76v266h-71q-35 0 -58.5 -10.5t-37.5 -29t-20.5 -44.5t-6.5 -57z " />
<glyph unicode="&#x430;" horiz-adv-x="352" d="M37 405q13 43 48 68t89 25q65 0 100.5 -29.5t35.5 -103.5v-365h-62v44h-1q-22 -31 -49.5 -40.5t-58.5 -9.5q-32 0 -53.5 12t-35 31.5t-19.5 44.5t-6 52q0 28 6 56t22 50.5t42 37t67 14.5h87v72q0 35 -16 56t-62 21q-22 0 -45.5 -12.5t-30.5 -41.5zM176 238 q-38 0 -64.5 -22.5t-26.5 -78.5q0 -38 17.5 -61.5t59.5 -23.5q40 0 63.5 22t23.5 64v100h-73z" />
<glyph unicode="&#x431;" horiz-adv-x="359" d="M185 423q-52 0 -75 -50q-13 -25 -14 -67q-1 -19 -1.5 -39.5t0.5 -56.5q1 -39 2 -66t6 -44q17 -52 78 -52q32 0 51.5 17.5t26.5 46.5q4 17 5 49t1 69v36t-1 39.5t-2.5 36t-4.5 26.5q-7 26 -24 40.5t-48 14.5zM195 478q54 0 80 -23t37 -55q4 -13 6.5 -33.5t4 -45t1.5 -51 v-51.5q0 -27 -0.5 -50t-3.5 -53q-4 -37 -18.5 -61t-35 -37.5t-44 -19t-46.5 -5.5q-31 0 -53.5 7t-38 19.5t-25.5 29t-15 35.5q-3 12 -5 29t-2.5 37.5t-1 41.5t-0.5 41v109q1 75 7 128.5t19.5 90.5t35 60.5t54.5 40.5q18 9 33.5 15.5t31.5 12.5t33 12.5t37 15.5 q6 -11 11.5 -22.5t10.5 -22.5q-20 -11 -35.5 -17t-30.5 -12t-32 -13t-39 -19q-31 -17 -51 -54q-14 -25 -18 -60.5t-5 -73.5h2q10 17 23.5 27.5t26.5 16.5t25 8t21 2z" />
<glyph unicode="&#x432;" horiz-adv-x="370" d="M107 437v-153h71q48 0 68 20t20 58q0 37 -22 56t-73 19h-64zM107 233v-176h72q30 0 48.5 7t29 20t14 30t3.5 37q0 39 -20 60.5t-70 21.5h-77zM45 0v491h130q81 0 116.5 -34t35.5 -96q0 -35 -11.5 -60t-39.5 -41h1q32 -14 44 -45t12 -68q0 -79 -40.5 -113t-118.5 -34h-129 z" />
<glyph unicode="&#x433;" horiz-adv-x="315" d="M108 437v-437h-62v492h251v-55h-189z" />
<glyph unicode="&#x434;" horiz-adv-x="415" d="M71 -126h-57v176l31 5q13 14 21 28t13.5 33.5t8 47.5t3.5 72l7 256h264v-437h35v-181h-57v126h-269v-126zM300 437h-144l-7 -206q-2 -63 -9.5 -106.5t-24.5 -69.5h185v382z" />
<glyph unicode="&#x435;" horiz-adv-x="350" d="M178 498q60 0 93.5 -29.5t39.5 -83.5q1 -11 1.5 -22t0.5 -22v-110h-220q0 -10 0.5 -19t0.5 -19q0 -26 1.5 -53t6.5 -41q16 -50 72 -50q38 0 56 22.5t20 59.5l62 -12q-5 -61 -40.5 -93.5t-100.5 -32.5q-31 0 -53.5 8t-38 20.5t-25 29t-13.5 33.5q-3 12 -5 30.5t-2.5 40 t-1 43.5t-0.5 42q0 26 0.5 52t2.5 50t4.5 43.5t7.5 32.5q14 37 45 58.5t86 21.5zM104 395q-6 -16 -7.5 -44.5t-2.5 -69.5h158v52q0 21 -2.5 40.5t-11 34.5t-23.5 24t-40 9q-22 0 -41 -10t-30 -36z" />
<glyph unicode="&#x436;" horiz-adv-x="565" d="M252 0v222h-46q-17 0 -31.5 -3t-26.5 -11.5t-21 -24t-15 -39.5l-36 -144h-61l42 160q10 36 25 62t49 34q-27 8 -43 32.5t-26 60.5l-38 142h59l39 -145q6 -24 16.5 -38t23.5 -21.5t26.5 -10t27.5 -2.5h36v217h61v-217h36q13 0 27 2.5t27 10t23.5 21.5t16.5 38l39 145h59 l-38 -142q-10 -36 -26 -60.5t-43 -32.5q34 -8 49 -34t25 -62l42 -160h-61l-36 144q-6 24 -15.5 39.5t-21.5 24t-26.5 11.5t-30.5 3h-46v-222h-61z" />
<glyph unicode="&#x437;" horiz-adv-x="332" d="M240 256q34 -12 42.5 -43.5t8.5 -71.5q0 -41 -12 -69t-32.5 -45t-46.5 -24.5t-54 -7.5q-27 0 -51 6.5t-42.5 21t-30 37.5t-14.5 56l60 9q2 -40 23.5 -57.5t56.5 -17.5q15 0 29.5 4.5t26 15.5t18.5 28.5t7 43.5q0 88 -62 88h-49v54h52q28 0 43.5 18.5t15.5 60.5 q0 38 -21 58t-56 20t-55.5 -18t-23.5 -56q-3 1 -11.5 2.5t-18 4t-18 4t-10.5 2.5q5 59 43 88t94 29q31 0 56.5 -7.5t44 -23t28.5 -40.5t10 -60q0 -33 -9.5 -64t-41.5 -44v-2z" />
<glyph unicode="&#x438;" horiz-adv-x="388" d="M282 0v379h-1l-179 -379h-59v491h60v-378h1q45 94 89 189.5t89 188.5h62v-491h-62z" />
<glyph unicode="&#x439;" horiz-adv-x="388" d="M118 680q4 -26 24.5 -48t50.5 -22q32 0 52.5 21t23.5 49h50q-2 -19 -10 -39.5t-23.5 -38t-38.5 -28.5t-54 -11q-33 0 -56.5 11t-38.5 28.5t-22.5 38t-8.5 39.5h51zM282 0v379h-1l-179 -379h-59v491h60v-378h1q45 94 89 189.5t89 188.5h62v-491h-62z" />
<glyph unicode="&#x43a;" horiz-adv-x="360" d="M37 0v491h62v-217h49q13 0 27 2.5t27 10t23.5 21.5t16.5 38l39 145h59l-38 -142q-10 -36 -26 -60.5t-43 -32.5q34 -8 49 -34t25 -62l42 -160h-61l-36 144q-6 24 -15.5 39.5t-21.5 24t-26.5 11.5t-30.5 3h-59v-222h-62z" />
<glyph unicode="&#x43b;" horiz-adv-x="369" d="M5 29q21 14 35.5 29t23 35.5t12 49.5t3.5 73v276h253v-492h-63v437h-134v-226q0 -48 -5 -84.5t-17 -63.5t-31.5 -46.5t-48.5 -33.5z" />
<glyph unicode="&#x43c;" horiz-adv-x="484" d="M374 359l-59 -127q-14 -30 -29 -59.5t-29 -58.5h-33l-57 116q-4 8 -12 25t-17 36t-17.5 36l-12.5 25l-1 -1v-351h-62v491h60q6 -12 15 -31.5t19.5 -42.5t22 -48.5t23.5 -50.5q17 -38 32.5 -69.5t23.5 -48.5h1l62 133l77 158h58v-491h-62v359h-3z" />
<glyph unicode="&#x43d;" horiz-adv-x="372" d="M264 0v225h-156v-225h-62v492h62v-213h156v213h64v-492h-64z" />
<glyph unicode="&#x43e;" horiz-adv-x="356" d="M180 498q56 0 86.5 -22t42.5 -55q9 -26 11.5 -66t2.5 -80v-49q0 -27 -1 -53.5t-4 -56.5q-4 -37 -18.5 -61t-35 -37.5t-44.5 -19t-47 -5.5q-61 0 -91 26.5t-40 64.5q-3 12 -5 30.5t-3 40t-1 43.5v42q0 26 0.5 52.5t2.5 50.5t4.5 43.5t7.5 31.5q13 36 45.5 58t86.5 22z M179 443q-23 0 -43 -10t-31 -36q-7 -18 -9 -55t-2 -88v-32q0 -41 1 -73t7 -49q15 -51 77 -51q29 0 49.5 17t27.5 46q3 18 5 53t2 73q0 21 -0.5 44t-1 44t-2.5 38t-5 26q-8 26 -28 39.5t-47 13.5z" />
<glyph unicode="&#x43f;" horiz-adv-x="376" d="M268 0v438h-159v-438h-62v492h283v-492h-62z" />
<glyph unicode="&#x440;" horiz-adv-x="357" d="M178 439q-39 0 -61 -25.5t-22 -66.5v-199q0 -40 19.5 -67.5t61.5 -27.5q58 0 73 57q5 21 6.5 59.5t1.5 83.5q0 47 -1.5 81t-7.5 54q-8 28 -25 39.5t-45 11.5zM196 498q16 0 35.5 -4.5t36.5 -17t30.5 -36t17.5 -61.5q3 -31 3 -62.5v-66.5q0 -55 -2 -101.5t-14 -79.5 t-37.5 -54t-75.5 -21q-35 0 -58.5 14.5t-34.5 33.5h-2v-235h-60v684h60v-42h2q17 23 38 36t61 13z" />
<glyph unicode="&#x441;" horiz-adv-x="332" d="M178 498q69 0 101 -36t32 -101l-63 -9v1q4 39 -16.5 64.5t-56.5 25.5q-23 0 -41.5 -11t-28.5 -36q-8 -19 -9.5 -63t-2.5 -104q1 -39 2 -75t6 -54q8 -24 26 -38t47 -14q36 0 55.5 22t18.5 67l63 -11q-3 -133 -140 -133q-30 0 -52.5 7.5t-38 20.5t-25 29t-13.5 34 q-3 12 -5 30.5t-2.5 40t-1 43.5t-0.5 42q0 26 0.5 53t2.5 51t4.5 43.5t7.5 31.5q13 36 44.5 57.5t85.5 21.5z" />
<glyph unicode="&#x442;" horiz-adv-x="284" d="M172 437v-437h-61v437h-109v55h280v-55h-110z" />
<glyph unicode="&#x443;" horiz-adv-x="326" d="M167 92q11 48 22 100.5t22 100.5l48 198h62l-148 -577q-6 -22 -14.5 -42t-21.5 -35t-32 -24t-46 -9h-23v53h16q30 0 45 21t25 66l14 55l-131 492h65q14 -54 26 -107.5t25 -107.5q5 -21 11 -46.5l12 -51t11.5 -48.5t8.5 -38h3z" />
<glyph unicode="&#x444;" horiz-adv-x="450" d="M254 689q0 -48 0.5 -95t0.5 -95q69 -3 106.5 -33.5t46.5 -81.5q5 -27 6 -58t1 -64v-62.5t-2 -60.5q-2 -30 -10 -54t-25 -43q-35 -42 -123 -51q0 -47 -0.5 -93t-0.5 -93h-59v186q-52 6 -86 20.5t-54 53.5q-11 20 -15 43.5t-5 50.5q-1 17 -1 38v59q0 21 1 44.5t3 46t5.5 41 t8.5 29.5q17 36 51.5 58t90.5 24v190h60zM254 46q32 2 54.5 14.5t33.5 32.5q7 12 9.5 27t3.5 32l-1 143q0 30 -2 57t-12 46.5t-30 31t-56 10.5v-394zM194 440q-45 -3 -70 -24.5t-27 -62.5q-2 -29 -2.5 -64t-0.5 -71q0 -17 0.5 -36t0.5 -36q1 -17 3.5 -30.5t7.5 -22.5 q11 -21 32 -32.5t56 -14.5v394z" />
<glyph unicode="&#x445;" horiz-adv-x="314" d="M240 0l-82 198l-85 -198h-67l119 252l-114 240h69l78 -187l76 187h71l-112 -240l116 -252h-69z" />
<glyph unicode="&#x446;" horiz-adv-x="375" d="M327 492v-434h33v-184h-57v126h-257v492h62v-434h156v434h63z" />
<glyph unicode="&#x447;" horiz-adv-x="348" d="M247 217q-25 -16 -53.5 -24t-53.5 -8q-60 0 -87 30.5t-27 88.5v188h62v-170q0 -40 14 -60.5t57 -20.5q21 0 45.5 8.5t43.5 22.5v220h61v-492h-62v217z" />
<glyph unicode="&#x448;" horiz-adv-x="553" d="M506 492v-492h-459v492h61v-434h136v434h62v-434h139v434h61z" />
<glyph unicode="&#x449;" horiz-adv-x="565" d="M505 492v-434h33v-173h-55v115h-436v492h60v-434h137v434h62v-434h137v434h62z" />
<glyph unicode="&#x44a;" horiz-adv-x="455" d="M211 58h57q31 0 51 8t31 21t15 29.5t4 33.5q0 19 -5 34.5t-17 27t-31.5 18t-49.5 6.5h-55v-178zM148 0v437h-135v55h198v-198h58q49 0 80 -11.5t49 -31t25 -45t7 -54.5q0 -33 -7 -61t-24.5 -48.5t-48 -31.5t-78.5 -11h-124z" />
<glyph unicode="&#x44b;" horiz-adv-x="482" d="M107 58h58q31 0 50.5 8t30.5 21t15 29.5t4 33.5q0 19 -5 34.5t-16.5 27t-31 18t-49.5 6.5h-56v-178zM370 0v492h63v-492h-63zM44 0v492h63v-198h59q49 0 80 -11.5t49 -31t25 -45t7 -54.5q0 -33 -7 -61t-24.5 -48.5t-48 -31.5t-78.5 -11h-125z" />
<glyph unicode="&#x44c;" horiz-adv-x="347" d="M104 58h58q31 0 51 8t31 21t15 29.5t4 33.5q0 19 -5 34.5t-17 27t-31.5 18t-48.5 6.5h-57v-178zM42 0v492h62v-198h59q49 0 80 -11.5t49 -31t25 -45t7 -54.5q0 -33 -7 -61t-24.5 -48.5t-48 -31.5t-77.5 -11h-125z" />
<glyph unicode="&#x44d;" horiz-adv-x="338" d="M93 278h145q-1 42 -2.5 72.5t-7.5 45.5q-11 26 -29 36.5t-41 10.5q-30 0 -50 -19t-22 -54l-64 11q5 52 40.5 85t98.5 33q55 0 83.5 -21.5t41.5 -57.5q4 -12 7 -32t4.5 -44t2 -50.5t0.5 -52.5q0 -20 -0.5 -42l-1 -44t-2.5 -40.5t-5 -30.5q-5 -18 -14 -34t-24 -29 t-38 -20.5t-54 -7.5q-65 0 -99.5 30.5t-39.5 86.5q3 0 12 1.5t19.5 3t19.5 2.5t12 2q3 -33 21.5 -51.5t51.5 -18.5q32 0 49 13.5t25 38.5q5 16 6 46t1 75h-146v56z" />
<glyph unicode="&#x44e;" horiz-adv-x="476" d="M38 491h61v-213h66q1 43 4 81.5t10 58.5q13 36 43 57t84 21q51 0 78 -17t39 -45q13 -29 16 -77t3 -95v-32q0 -28 -1 -56.5t-4 -57.5q-4 -37 -17.5 -61t-33 -37.5t-42.5 -19t-45 -5.5q-59 0 -87.5 26.5t-38.5 64.5q-3 10 -4.5 26t-2 35.5t-1 40t-0.5 39.5h-66v-225h-61 v491zM304 441q-21 0 -39.5 -10t-29.5 -36q-5 -14 -7.5 -50.5t-3.5 -85.5v-58q1 -34 1.5 -60t5.5 -41q15 -51 73 -51q11 0 22.5 3.5t22 11t18 19t10.5 27.5q3 18 4 53.5t1 73.5q0 44 -1.5 87.5t-6.5 63.5q-14 53 -70 53z" />
<glyph unicode="&#x44f;" horiz-adv-x="365" d="M37 349q0 65 36.5 104t118.5 39h130v-492h-62v217h-61q-31 0 -50.5 -15.5t-30.5 -62.5l-33 -139h-62l40 155q6 26 18 48t34 32q-42 14 -60 43.5t-18 70.5zM200 437q-56 0 -78 -25.5t-22 -65.5q0 -38 24.5 -57t71.5 -19h64v167h-60z" />
<glyph unicode="&#x451;" horiz-adv-x="350" d="M178 498q60 0 93.5 -29.5t39.5 -83.5q1 -11 1.5 -22t0.5 -22v-110h-220q0 -10 0.5 -19t0.5 -19q0 -26 1.5 -53t6.5 -41q16 -50 72 -50q38 0 56 22.5t20 59.5l62 -12q-5 -61 -40.5 -93.5t-100.5 -32.5q-31 0 -53.5 8t-38 20.5t-25 29t-13.5 33.5q-3 12 -5 30.5t-2.5 40 t-1 43.5t-0.5 42q0 26 0.5 52t2.5 50t4.5 43.5t7.5 32.5q14 37 45 58.5t86 21.5zM104 395q-6 -16 -7.5 -44.5t-2.5 -69.5h158v52q0 21 -2.5 40.5t-11 34.5t-23.5 24t-40 9q-22 0 -41 -10t-30 -36zM74 594v64h56v-64h-56zM225 594v64h55v-64h-55z" />
<glyph unicode="&#x452;" horiz-adv-x="375" d="M213 493q48 0 73 -20.5t36 -53.5q4 -13 7 -36t4 -51t1.5 -58t0.5 -57q0 -17 -0.5 -36.5t-1.5 -38.5t-2.5 -36.5t-4.5 -30.5q-10 -48 -47.5 -75.5t-94.5 -24.5v53q29 1 50.5 14t30.5 42q5 17 6 51.5t1 72.5q0 64 -2 112t-7 64q-8 22 -24 34.5t-46 12.5q-44 0 -65.5 -30.5 t-21.5 -69.5v-331h-60v577h-46v47h46v102h61v-102h162v-47h-162v-144h2q14 26 41.5 43t62.5 17z" />
<glyph unicode="&#x453;" horiz-adv-x="315" d="M115 570l67 159l59 -21l-92 -152zM108 437v-437h-62v492h251v-55h-189z" />
<glyph unicode="&#x454;" horiz-adv-x="347" d="M322 112q-5 -58 -39.5 -88.5t-99.5 -30.5q-31 0 -53.5 7.5t-38 20.5t-25 29t-13.5 34q-3 12 -5 30.5t-2.5 40t-1 43.5t-0.5 42q0 26 1 53t2.5 51t4.5 43.5t7 31.5q14 36 46 57.5t86 21.5q65 0 96.5 -32t34.5 -87l-62 -9q-2 35 -21.5 54t-51.5 19q-23 0 -41.5 -11 t-29.5 -36q-6 -15 -8 -46.5t-3 -74.5h143v-53h-143v-44q0 -6 0.5 -17t1.5 -22.5t2.5 -22.5t3.5 -18q8 -24 25.5 -37t47.5 -13q68 0 74 73z" />
<glyph unicode="&#x455;" horiz-adv-x="331" d="M90 133q-1 -38 19 -61t56 -22q44 0 60.5 21t16.5 62q0 19 -3 33t-12 25t-25 20t-42 19q-39 15 -63.5 30.5t-38 32.5t-18.5 36t-5 40q0 57 33 93.5t102 36.5t102 -34.5t33 -96.5l-64 -9q2 42 -18.5 62.5t-53.5 20.5q-22 0 -36.5 -6.5t-22.5 -17t-11.5 -23.5t-3.5 -26 q0 -14 3.5 -25.5t14 -22t29 -20.5t48.5 -20q37 -14 59.5 -29t34 -33t15 -39t3.5 -46q0 -62 -31 -101.5t-104 -39.5q-136 0 -139 130z" />
<glyph unicode="&#x456;" horiz-adv-x="163" d="M49 612v64h63v-64h-63zM49 0v492h62v-492h-62z" />
<glyph unicode="&#x457;" horiz-adv-x="163" d="M128 587v64h55v-64h-55zM-23 587v64h56v-64h-56zM49 0v492h62v-492h-62z" />
<glyph unicode="&#x458;" horiz-adv-x="163" d="M51 613v64h63v-64h-63zM113 -71q0 -27 -4.5 -50.5t-16.5 -41t-33 -27.5t-54 -10h-22v56h11q37 0 47 22t10 63v551h62v-563z" />
<glyph unicode="&#x459;" horiz-adv-x="557" d="M134 437v-226q0 -48 -5 -84.5t-17 -63.5t-31.5 -46.5t-49.5 -33.5l-27 46q21 14 35 29t22.5 35.5t12 49.5t3.5 73v276h235v-198h58q49 0 80 -11.5t49 -31t25 -45.5t7 -56q0 -33 -7 -61t-25 -47.5t-48.5 -30.5t-77.5 -11h-125v437h-114zM312 58h57q31 0 51 7.5t31 20.5 t15 29.5t4 33.5q0 19 -5 34.5t-17 27t-31.5 18t-49.5 6.5h-55v-177z" />
<glyph unicode="&#x45a;" horiz-adv-x="567" d="M320 58h57q31 0 50.5 7.5t30.5 20.5t15 29.5t4 33.5q0 36 -21.5 58t-80.5 22h-55v-171zM256 0v229h-146v-229h-62v492h62v-204h146v204h64v-204h57q49 0 80.5 -10.5t49.5 -29.5t25 -44t7 -54q0 -33 -7 -61t-24.5 -47.5t-48 -30.5t-78.5 -11h-125z" />
<glyph unicode="&#x45b;" horiz-adv-x="375" d="M108 625h161v-48h-161v-144h2q17 28 44.5 43t61.5 15q31 0 52.5 -10t35 -27.5t20 -41t6.5 -51.5v-361h-62v343q0 38 -17.5 61.5t-59.5 23.5q-41 0 -62.5 -26t-21.5 -64v-338h-60v577h-46v48h46v101h61v-101z" />
<glyph unicode="&#x45c;" horiz-adv-x="361" d="M140 570l67 159l59 -21l-92 -152zM37 0v491h62v-217h49q13 0 27 2.5t27 10t23.5 21.5t16.5 38l39 145h59l-38 -142q-10 -36 -26 -60.5t-43 -32.5q34 -8 49 -34t25 -62l42 -160h-61l-36 144q-6 24 -15.5 39.5t-21.5 24t-26.5 11.5t-30.5 3h-59v-222h-62z" />
<glyph unicode="&#x45e;" horiz-adv-x="326" d="M167 92q11 48 22 100.5t22 100.5l48 198h62l-148 -577q-6 -22 -14.5 -42t-21.5 -35t-32 -24t-46 -9h-23v53h16q30 0 45 21t25 66l14 55l-131 492h65q14 -54 26 -107.5t25 -107.5q5 -21 11 -46.5l12 -51t11.5 -48.5t8.5 -38h3zM93 680q4 -26 24.5 -48t50.5 -22 q32 0 52.5 21t23.5 49h50q-2 -19 -10 -39.5t-23.5 -38t-38.5 -28.5t-54 -11q-33 0 -56.5 11t-38.5 28.5t-22.5 38t-8.5 39.5h51z" />
<glyph unicode="&#x45f;" horiz-adv-x="374" d="M328 492v-492h-111v-131h-59v131h-111v492h62v-433h157v433h62z" />
<glyph unicode="&#x490;" horiz-adv-x="354" d="M114 639v-639h-61v696h224v120h56v-177h-219z" />
<glyph unicode="&#x491;" horiz-adv-x="315" d="M108 437v-437h-62v492h195v113h56v-168h-189z" />
<glyph unicode="&#x4d9;" horiz-adv-x="350" d="M168 -6q-60 0 -93.5 29.5t-39.5 83.5q-1 11 -1.5 22t-0.5 22v110h220q0 10 -0.5 19t-0.5 19q0 26 -1.5 53t-6.5 41q-16 50 -72 50q-38 0 -56 -22.5t-20 -59.5l-62 12q5 61 40.5 93.5t100.5 32.5q31 0 53.5 -8t38 -20.5t24.5 -29t14 -33.5q3 -12 5 -30.5t2.5 -40t1 -44 t0.5 -41.5q0 -26 -0.5 -52t-2.5 -50t-5 -43.5t-7 -32.5q-14 -37 -45 -58.5t-86 -21.5zM242 97q6 16 7.5 44.5t2.5 69.5h-158v-52q0 -21 2.5 -40.5t11 -34.5t23.5 -24t40 -9q22 0 41 10t30 36z" />
<glyph unicode="&#x1e80;" horiz-adv-x="581" d="M454 -1h-63l-68 368l-32 186h-3l-31 -189l-68 -365h-62l-109 697h63l51 -347l28 -227h3l35 225l64 349h58l62 -349l37 -225h3l27 226l51 348h63zM287 753l-154 91l42 47l135 -109z" />
<glyph unicode="&#x1e81;" horiz-adv-x="538" d="M267 373l-46 -214l-36 -159h-62l-113 491h64q6 -29 15.5 -75t20.5 -99q7 -32 13.5 -64.5t12.5 -61.5t11 -54t8 -41h3q7 38 19.5 99.5t25.5 124.5l36 171h63l33 -163q12 -59 23.5 -117.5t23.5 -116.5h3l36 182q4 21 10 50t12 59t12 58t10 48h64q-29 -124 -57 -245.5 t-56 -245.5h-63l-34 148q-13 56 -25 112.5t-24 112.5h-3zM253 556l-92 152l58 21l68 -159z" />
<glyph unicode="&#x1e82;" horiz-adv-x="581" d="M454 -1h-63l-68 368l-32 186h-3l-31 -189l-68 -365h-62l-109 697h63l51 -347l28 -227h3l35 225l64 349h58l62 -349l37 -225h3l27 226l51 348h63zM270 751l135 109l40 -47l-152 -91z" />
<glyph unicode="&#x1e83;" horiz-adv-x="538" d="M267 373l-46 -214l-36 -159h-62l-113 491h64q6 -29 15.5 -75t20.5 -99q7 -32 13.5 -64.5t12.5 -61.5t11 -54t8 -41h3q7 38 19.5 99.5t25.5 124.5l36 171h63l33 -163q12 -59 23.5 -117.5t23.5 -116.5h3l36 182q4 21 10 50t12 59t12 58t10 48h64q-29 -124 -57 -245.5 t-56 -245.5h-63l-34 148q-13 56 -25 112.5t-24 112.5h-3zM256 570l67 159l59 -21l-92 -152z" />
<glyph unicode="&#x1e84;" horiz-adv-x="581" d="M454 -1h-63l-68 368l-32 186h-3l-31 -189l-68 -365h-62l-109 697h63l51 -347l28 -227h3l35 225l64 349h58l62 -349l37 -225h3l27 226l51 348h63zM337 749v63h55v-63h-55zM187 749v63h56v-63h-56z" />
<glyph unicode="&#x1e85;" horiz-adv-x="538" d="M267 373l-46 -214l-36 -159h-62l-113 491h64q6 -29 15.5 -75t20.5 -99q7 -32 13.5 -64.5t12.5 -61.5t11 -54t8 -41h3q7 38 19.5 99.5t25.5 124.5l36 171h63l33 -163q12 -59 23.5 -117.5t23.5 -116.5h3l36 182q4 21 10 50t12 59t12 58t10 48h64q-29 -124 -57 -245.5 t-56 -245.5h-63l-34 148q-13 56 -25 112.5t-24 112.5h-3zM163 587v64h56v-64h-56zM314 587v64h55v-64h-55z" />
<glyph unicode="&#x1ef2;" horiz-adv-x="363" d="M182 375l44 140l60 181h64q-6 -17 -17 -48.5t-24.5 -71t-28.5 -82t-28.5 -81.5t-24 -71t-16.5 -48v-295h-61v295q-6 16 -16.5 48t-24 71t-28.5 81.5t-28.5 82t-24.5 71t-17 48.5h64l60 -183q3 -9 9 -28t13 -41t13 -41t9 -28h3zM222 723l-154 91l42 47l135 -109z" />
<glyph unicode="&#x1ef3;" horiz-adv-x="326" d="M167 92q11 48 22 100.5t22 100.5l48 198h62l-148 -577q-6 -22 -14.5 -42t-21.5 -35t-32 -24t-46 -9h-23v53h16q30 0 45 21t25 66l14 55l-131 492h65q14 -54 26 -107.5t25 -107.5q5 -21 11 -46.5l12 -51t11.5 -48.5t8.5 -38h3zM170 556l-92 152l58 21l68 -159z" />
<glyph unicode="&#x2013;" horiz-adv-x="500" d="M20 235v59h460v-59h-460z" />
<glyph unicode="&#x2014;" horiz-adv-x="1000" d="M20 235v59h960v-59h-960z" />
<glyph unicode="&#x2015;" horiz-adv-x="1000" d="M20 235v59h960v-59h-960z" />
<glyph unicode="&#x2018;" horiz-adv-x="194" d="M97 701h36q-6 -26 -11.5 -51.5t-10.5 -50.5h17v-77h-70v75z" />
<glyph unicode="&#x2019;" horiz-adv-x="194" d="M93 523h-35q5 25 10.5 50.5t11.5 51.5h-17v76h70v-75z" />
<glyph unicode="&#x201a;" horiz-adv-x="164" d="M78 -107h-35l21 102h-17v76h70v-75z" />
<glyph unicode="&#x201c;" horiz-adv-x="262" d="M81 701h36q-2 -6 -5 -20.5t-6.5 -30.5t-6.5 -30.5t-4 -20.5h17v-77h-70v75zM185 701h36q-2 -6 -5 -20.5t-6.5 -30.5t-6.5 -30.5t-4 -20.5h17v-77h-70v75z" />
<glyph unicode="&#x201d;" horiz-adv-x="262" d="M84 523h-35q5 25 10.5 50.5t11.5 51.5h-17v76h70v-75zM182 523h-35l21 102h-17v76h70v-75z" />
<glyph unicode="&#x201e;" horiz-adv-x="262" d="M78 -108h-35q5 25 10.5 50.5t11.5 51.5h-17v76h70v-75zM176 -108h-35l21 102h-17v76h70v-75z" />
<glyph unicode="&#x2020;" horiz-adv-x="346" d="M200 406v-577h-56v577h-136v56h136v220h56v-220h136v-56h-136z" />
<glyph unicode="&#x2021;" horiz-adv-x="346" d="M144 406h-136v56h136v220h56v-220h136v-56h-136v-235h136v-55h-136v-287h-56v287h-136v55h136v235z" />
<glyph unicode="&#x2022;" horiz-adv-x="381" d="M305 267q0 -23 -9 -43.5t-24 -35.5t-35.5 -24t-43.5 -9t-43.5 9t-35.5 24t-24 35.5t-9 43.5t9 43.5t24 35.5t35.5 24t43.5 9t43.5 -9t35.5 -24t24 -35.5t9 -43.5z" />
<glyph unicode="&#x2023;" horiz-adv-x="453" d="M421 277l-340 -184v357z" />
<glyph unicode="&#x2026;" horiz-adv-x="576" d="M47 0v73h70v-73h-70zM250 0v73h69v-73h-69zM456 0v73h70v-73h-70z" />
<glyph unicode="&#x2030;" horiz-adv-x="764" d="M522 81q0 -40 -27.5 -62.5t-64.5 -22.5q-42 0 -67.5 22.5t-25.5 62.5v251q0 40 27 63.5t66 23.5q37 0 64.5 -22t27.5 -62v-254zM471 333q0 16 -10.5 27.5t-30.5 11.5q-23 0 -33 -12.5t-10 -28.5v-248q0 -17 11 -27.5t32 -10.5q20 0 30.5 12t10.5 29v247zM212 360 q0 -40 -27.5 -62.5t-64.5 -22.5q-42 0 -67.5 22.5t-25.5 62.5v251q0 40 27 63.5t66 23.5q37 0 64.5 -22t27.5 -62v-254zM161 612q0 16 -10.5 27.5t-30.5 11.5q-23 0 -33 -12.5t-10 -28.5v-248q0 -17 11 -27.5t32 -10.5q20 0 30.5 12t10.5 29v247zM139 -17h-42l314 731h42z M735 81q0 -40 -27.5 -62.5t-64.5 -22.5q-42 0 -67.5 22.5t-25.5 62.5v251q0 40 27 63.5t66 23.5q37 0 64.5 -22t27.5 -62v-254zM684 333q0 16 -10.5 27.5t-30.5 11.5q-23 0 -33 -12.5t-10 -28.5v-248q0 -17 11 -27.5t32 -10.5q20 0 30.5 12t10.5 29v247z" />
<glyph unicode="&#x2039;" horiz-adv-x="249" d="M149 46l-107 186l107 186h61l-105 -186l105 -186h-61z" />
<glyph unicode="&#x203a;" horiz-adv-x="249" d="M42 46l105 186l-105 186h60l107 -186l-107 -186h-60z" />
<glyph unicode="&#x2044;" horiz-adv-x="174" d="M-53 -17h-42l314 731h42z" />
<glyph unicode="&#x2070;" horiz-adv-x="239" d="M212 450q0 -40 -27.5 -62.5t-64.5 -22.5q-42 0 -67.5 22.5t-25.5 62.5v251q0 40 27 63.5t66 23.5q37 0 64.5 -22t27.5 -62v-254zM161 702q0 16 -10.5 27.5t-30.5 11.5q-23 0 -33 -12.5t-10 -28.5v-248q0 -17 11 -27.5t32 -10.5q20 0 30.5 12t10.5 29v247z" />
<glyph unicode="&#x2074;" horiz-adv-x="239" d="M193 435v-66h-49v66h-132v41l94 309h51l-94 -305h81v113h49v-113h35v-45h-35z" />
<glyph unicode="&#x2075;" horiz-adv-x="239" d="M212 454q0 -43 -23 -66.5t-68 -23.5q-49 0 -72 26t-20 71l51 6q-2 -26 7 -43.5t35 -17.5q21 0 31 12.5t10 34.5v107q0 20 -11 29t-31 9q-31 0 -44 -24h-41v212h176v-42h-132v-121h1q11 9 24.5 12.5t27.5 3.5q38 0 58.5 -20t20.5 -52v-113z" />
<glyph unicode="&#x2076;" horiz-adv-x="239" d="M120 365q-47 0 -70 22t-23 62v67q0 25 4 41t9 28q6 15 18 42.5t25 57.5t24.5 57.5t17.5 42.5h52q-12 -27 -24 -56.5t-22.5 -55t-18 -44.5t-8.5 -23l14 4t15 2q41 0 60 -22t19 -57v-87q0 -40 -27.5 -60.5t-64.5 -20.5zM161 535q0 16 -11.5 25t-28.5 9q-23 0 -33.5 -13.5 t-10.5 -30.5v-82q0 -17 11.5 -25.5t31.5 -8.5q18 0 29.5 8.5t11.5 25.5v92z" />
<glyph unicode="&#x2077;" horiz-adv-x="217" d="M84 369h-48l116 374h-91v-49h-46v91h189v-35z" />
<glyph unicode="&#x2078;" horiz-adv-x="239" d="M212 649q0 -22 -8.5 -37t-22.5 -26q14 -11 22.5 -25.5t8.5 -37.5v-74q0 -40 -27.5 -62t-64.5 -22q-47 0 -70 22t-23 62v74q0 41 32 63q-32 21 -32 63v56q0 40 28 61.5t65 21.5t64.5 -21.5t27.5 -61.5v-56zM162 527q0 16 -11.5 27.5t-30.5 11.5q-20 0 -31.5 -11.5 t-11.5 -27.5v-81q0 -17 11.5 -27t31.5 -10q18 0 30 10.5t12 27.5v80zM162 708q0 16 -12 26.5t-30 10.5q-20 0 -31.5 -10.5t-11.5 -26.5v-65q0 -15 11.5 -25t31.5 -10q18 0 30 10t12 25v65z" />
<glyph unicode="&#x2079;" horiz-adv-x="239" d="M62 369q10 24 22.5 53t23 55t18 46t9.5 25q-13 -5 -29 -5q-41 0 -60 22t-19 57v88q0 39 28 59t65 20t64.5 -20t27.5 -59v-72q0 -24 -4 -40t-9 -29q-7 -14 -19 -41.5t-24.5 -58t-24 -58t-17.5 -42.5h-52zM77 619q0 -15 10.5 -24t31.5 -9q23 0 32.5 14t9.5 30v77 q0 17 -10.5 28t-30.5 11q-21 0 -32 -11t-11 -28v-88z" />
<glyph unicode="&#x207a;" horiz-adv-x="239" d="M140 526v-94h-40v94h-96v39h96v94h40v-94h94v-39h-94z" />
<glyph unicode="&#x207b;" horiz-adv-x="218" d="M27 520v43h170v-43h-170z" />
<glyph unicode="&#x207c;" horiz-adv-x="239" d="M4 482v40h230v-40h-230zM4 569v40h230v-40h-230z" />
<glyph unicode="&#x207d;" horiz-adv-x="138" d="M109 301q-35 48 -60 112t-25 138q0 72 24.5 135t60.5 112l27 -13q-30 -51 -47.5 -111.5t-17.5 -119.5q0 -64 17.5 -125.5t46.5 -110.5z" />
<glyph unicode="&#x207e;" horiz-adv-x="138" d="M23 318q29 49 47 110.5t18 125.5q0 59 -17.5 119.5t-47.5 111.5l26 13q37 -50 61 -112.5t24 -134.5q0 -74 -25 -137.5t-61 -111.5z" />
<glyph unicode="&#x207f;" horiz-adv-x="250" d="M75 578q11 13 29.5 22t38.5 9q44 0 63.5 -25.5t19.5 -63.5v-241h-53v227q0 23 -11 38t-37 15q-24 0 -37 -16.5t-13 -39.5v-224h-53v326h53v-27z" />
<glyph unicode="&#x2080;" horiz-adv-x="239" d="M213 -9q0 -40 -27.5 -62.5t-64.5 -22.5q-42 0 -67.5 22.5t-25.5 62.5v251q0 40 27 63.5t66 23.5q37 0 64.5 -22t27.5 -62v-254zM162 243q0 16 -10.5 27.5t-30.5 11.5q-23 0 -33 -12.5t-10 -28.5v-248q0 -17 11 -27.5t32 -10.5q20 0 30.5 12t10.5 29v247z" />
<glyph unicode="&#x2081;" horiz-adv-x="200" d="M106 -90v364l-67 -47v52l68 47h48v-416h-49z" />
<glyph unicode="&#x2082;" horiz-adv-x="239" d="M121 285q-20 0 -32 -16.5t-12 -51.5l-51 8q-1 48 23 76t73 28q50 0 72.5 -25t22.5 -67q0 -50 -27 -96l-104 -184h127v-47h-185v39l119 214q10 18 14 36t4 37t-9 34t-35 15z" />
<glyph unicode="&#x2083;" horiz-adv-x="239" d="M212 -3q0 -43 -23 -67t-68 -24q-51 0 -73 26.5t-20 72.5l51 6q-2 -28 8 -44.5t35 -16.5q20 0 30.5 13t10.5 34v59q0 26 -11.5 37t-34.5 11h-25v43h26q22 0 33.5 10t11.5 33v50q0 17 -8.5 31t-32.5 14q-25 0 -35.5 -17t-10.5 -43l-51 8q2 41 26 68t73 27q26 0 43 -7 t27 -19t14 -28t4 -34v-35q0 -23 -4.5 -42.5t-27.5 -35.5q22 -11 27 -29t5 -44v-57z" />
<glyph unicode="&#x2084;" horiz-adv-x="239" d="M193 -24v-66h-49v66h-132v41l94 309h51l-94 -305h81v113h49v-113h35v-45h-35z" />
<glyph unicode="&#x2085;" horiz-adv-x="239" d="M212 -5q0 -43 -23 -66.5t-68 -23.5q-49 0 -72 26t-20 71l51 6q-2 -26 7 -43.5t35 -17.5q21 0 31 12.5t10 34.5v107q0 20 -11 29t-31 9q-31 0 -44 -24h-41v212h176v-42h-132v-121h1q11 9 24.5 12.5t27.5 3.5q38 0 58.5 -20t20.5 -52v-113z" />
<glyph unicode="&#x2086;" horiz-adv-x="239" d="M120 -94q-47 0 -70 22t-23 62v67q0 25 4 41t9 28q6 15 18 42.5t25 57.5t24.5 57.5t17.5 42.5h52q-12 -27 -24 -56.5t-22.5 -55t-18 -44.5t-8.5 -23l14 4t15 2q41 0 60 -22t19 -57v-87q0 -40 -27.5 -60.5t-64.5 -20.5zM161 74q0 16 -11.5 26t-28.5 10q-23 0 -33.5 -14.5 t-10.5 -31.5v-80q0 -17 11.5 -25.5t31.5 -8.5q18 0 29.5 8.5t11.5 25.5v90z" />
<glyph unicode="&#x2087;" horiz-adv-x="217" d="M84 -90h-48l116 374h-91v-49h-46v91h189v-35z" />
<glyph unicode="&#x2088;" horiz-adv-x="239" d="M212 190q0 -22 -8.5 -37t-22.5 -26q14 -11 22.5 -25.5t8.5 -37.5v-74q0 -40 -27.5 -62t-64.5 -22q-47 0 -70 22t-23 62v74q0 41 32 63q-32 21 -32 63v56q0 40 28 61.5t65 21.5t64.5 -21.5t27.5 -61.5v-56zM162 68q0 16 -11.5 27.5t-30.5 11.5q-20 0 -31.5 -11.5 t-11.5 -27.5v-81q0 -17 11.5 -27t31.5 -10q18 0 30 10.5t12 27.5v80zM162 249q0 16 -12 26.5t-30 10.5q-20 0 -31.5 -10.5t-11.5 -26.5v-65q0 -15 11.5 -25t31.5 -10q18 0 30 10t12 25v65z" />
<glyph unicode="&#x2089;" horiz-adv-x="239" d="M62 -90q10 24 22.5 53t23 55t18 46t9.5 25q-13 -5 -29 -5q-41 0 -60 22t-19 57v88q0 39 28 59t65 20t64.5 -20t27.5 -59v-72q0 -24 -4 -40t-9 -29q-7 -14 -19 -41.5t-24.5 -58t-24 -58t-17.5 -42.5h-52zM77 160q0 -15 10.5 -24t31.5 -9q23 0 32.5 14t9.5 30v77 q0 17 -10.5 28t-30.5 11q-21 0 -32 -11t-11 -28v-88z" />
<glyph unicode="&#x208a;" horiz-adv-x="239" d="M140 97v-94h-40v94h-96v38h96v94h40v-94h94v-38h-94z" />
<glyph unicode="&#x208b;" horiz-adv-x="218" d="M27 91v42h170v-42h-170z" />
<glyph unicode="&#x208c;" horiz-adv-x="239" d="M4 53v39h230v-39h-230zM4 140v39h230v-39h-230z" />
<glyph unicode="&#x208d;" horiz-adv-x="138" d="M109 -158q-35 48 -60 112t-25 138q0 72 24.5 135t60.5 112l27 -13q-30 -51 -47.5 -111.5t-17.5 -119.5q0 -64 17.5 -125.5t46.5 -110.5z" />
<glyph unicode="&#x208e;" horiz-adv-x="138" d="M23 -141q29 49 47 110.5t18 125.5q0 59 -17.5 119.5t-47.5 111.5l26 13q37 -50 61 -112.5t24 -134.5q0 -74 -25 -137.5t-61 -111.5z" />
<glyph unicode="&#x20ab;" horiz-adv-x="367" d="M153 617h87v69h55v-69h46v-43h-46v-456h-55v30q-13 -15 -31 -24.5t-47 -9.5q-38 0 -63.5 19.5t-32.5 62.5q-2 17 -4 35.5t-2 35.5v72q0 30 2 56t9 46q10 31 32 50.5t66 19.5q26 0 43 -10t28 -24v97h-87v43zM176 167q32 0 48.5 18.5t16.5 48.5v154q0 29 -15.5 49t-48.5 20 q-39 0 -52 -36q-6 -16 -7.5 -46.5t-1.5 -68.5q0 -34 1 -61t6 -41q7 -20 20 -28.5t33 -8.5zM302 53v-53h-235v53h235z" />
<glyph unicode="&#x20ac;" horiz-adv-x="367" d="M15 319h34v68h-34v39h34v99q0 37 8 69.5t26 56.5t47 37.5t70 13.5q67 0 106.5 -34.5t41.5 -97.5l-61 -10q-3 44 -26 64.5t-62 20.5q-24 0 -40.5 -9.5t-27.5 -25t-16 -36.5t-5 -43v-105h157v-39h-157v-68h157v-39h-157v-127q0 -20 5 -39t16 -33t28 -22.5t40 -8.5 q38 0 60.5 20.5t27.5 65.5l63 -9q-6 -66 -46 -100t-104 -34q-71 0 -111 40t-40 118v129h-34v39z" />
<glyph unicode="&#x2103;" horiz-adv-x="628" d="M446 702q73 0 113 -40.5t40 -113.5l-62 -12q1 54 -23 81.5t-69 27.5q-26 0 -43.5 -10t-28.5 -26.5t-16 -37.5t-5 -43v-371q0 -20 5 -39.5t16 -34.5t28.5 -24t43.5 -9q41 0 66 25.5t26 83.5l63 -11q-2 -77 -43.5 -116t-110.5 -39q-76 0 -115.5 41.5t-39.5 119.5v367 q0 37 8 70t26 57.5t47.5 39t73.5 14.5zM238 601q0 -41 -27.5 -69t-69.5 -28q-40 0 -68 28t-28 69q0 20 7.5 38t20.5 31.5t30.5 21t37.5 7.5q42 0 69.5 -28.5t27.5 -69.5zM141 661q-24 0 -41 -17t-17 -43q0 -25 17 -42t41 -17q25 0 42 17t17 42q0 26 -17 43t-42 17z" />
<glyph unicode="&#x2105;" horiz-adv-x="546" d="M407 353q41 0 62 -16.5t31 -39.5q4 -10 6.5 -26t3.5 -34t1 -37v-35q0 -23 -1 -42t-3 -39q-3 -26 -13.5 -43.5t-25 -27.5t-32 -14t-33.5 -4q-45 0 -66.5 19t-29.5 47q-2 7 -3.5 20t-2.5 28.5t-1 31v29.5q0 18 0.5 37t2 36t3.5 31t5 22q10 26 33.5 41.5t62.5 15.5zM406 305 q-12 0 -23 -5t-19 -17q-8 -14 -10 -47t-2 -78q0 -26 1.5 -48.5t4.5 -34.5q5 -14 17.5 -23.5t30.5 -9.5q30 0 43 27q5 8 8 35.5t3 63.5q0 30 -1.5 60.5t-5.5 42.5q-9 34 -47 34zM135 -17h-43l314 731h43zM145 700q50 0 74 -27.5t24 -77.5l-53 -7q-1 30 -13.5 46t-33.5 16 q-14 0 -25.5 -6t-18.5 -22q-4 -10 -5.5 -42t-1.5 -76q0 -22 0.5 -47t5.5 -39q9 -29 45 -29q45 0 47 62l52 -10q-1 -49 -26.5 -75t-75.5 -26q-45 0 -65.5 21t-28.5 47q-2 8 -3 21t-2 28t-1 30.5v28.5q0 36 2.5 72t8.5 53q10 26 32.5 42.5t61.5 16.5z" />
<glyph unicode="&#x2109;" horiz-adv-x="606" d="M299 0v696h291v-57h-230v-255h201v-57h-201v-327h-61zM238 601q0 -41 -27.5 -69t-69.5 -28q-40 0 -68 28t-28 69q0 20 7.5 38t20.5 31.5t30.5 21t37.5 7.5q42 0 69.5 -28.5t27.5 -69.5zM141 661q-24 0 -41 -17t-17 -43q0 -25 17 -42t41 -17q25 0 42 17t17 42q0 26 -17 43 t-42 17z" />
<glyph unicode="&#x2113;" horiz-adv-x="321" d="M299 133q-7 -25 -17 -50.5t-24.5 -46t-33 -33.5t-43.5 -13q-47 0 -76 43t-29 119v58q-11 -11 -20.5 -21t-18.5 -18l-17 35q1 1 9 9.5t17.5 18.5t17.5 19.5t11 12.5v265q0 50 8 84t22 54.5t32.5 29.5t38.5 9q37 0 57.5 -32t20.5 -96q0 -82 -35 -161.5t-99 -169.5v-61 q0 -79 18 -113t44 -34t43.5 26.5t33.5 79.5zM120 318q48 75 70 139.5t22 122.5q0 13 -2 26.5t-6.5 25t-11.5 19t-18 7.5q-21 0 -37.5 -28.5t-16.5 -95.5v-216z" />
<glyph unicode="&#x2116;" horiz-adv-x="678" d="M111 526v-526h-61v696h58q6 -15 17.5 -43t26 -62.5t30 -72t30 -72t26 -62.5t18.5 -43l70 -174h4v529h61v-696h-58q-6 15 -17.5 42.5t-26 62t-30 72t-30 71.5t-26.5 61.5t-18 42.5l-71 174h-3zM540 699q41 0 63 -15t31 -38q7 -16 8.5 -42.5t1.5 -53.5v-30q0 -18 -1 -36 t-3 -37q-3 -23 -13.5 -39t-25 -26t-32 -14t-33.5 -4q-44 0 -65.5 18.5t-29.5 42.5q-2 8 -3.5 20t-2 26.5t-0.5 29.5v28q0 33 2 66.5t9 48.5q9 25 32.5 40t61.5 15zM540 653q-34 0 -45 -26q-5 -11 -6.5 -35t-1.5 -55v-20q0 -26 0.5 -46.5t4.5 -31.5q9 -29 48 -29 q19 0 31.5 9.5t16.5 26.5q2 12 3.5 34.5t1.5 47.5q0 26 -1 55t-5 40q-5 14 -17.5 22t-29.5 8zM445 286v48h188v-48h-188z" />
<glyph unicode="&#x2117;" horiz-adv-x="703" d="M369 539q32 0 53 -8.5t33 -24.5t17 -39t5 -52q0 -27 -4.5 -50t-17 -40t-34 -26.5t-55.5 -9.5h-44v-165h-46v415h93zM322 334h43q41 0 54 22.5t13 57.5q0 17 -2.5 32t-9.5 26t-20.5 17.5t-34.5 6.5h-43v-162zM353 -8q-74 0 -130.5 26.5t-94.5 73.5t-57.5 110.5 t-19.5 138.5t19.5 139.5t57.5 111.5t94.5 73.5t130.5 26.5q73 0 129 -26.5t94.5 -73.5t58.5 -111.5t20 -139.5t-20 -138.5t-58.5 -110.5t-94.5 -73.5t-129 -26.5zM353 651q-64 0 -112 -24.5t-79.5 -66.5t-47.5 -98.5t-16 -120.5q0 -65 17 -121t49.5 -97.5t80 -65 t108.5 -23.5q63 0 111 24t80 65t48.5 97t16.5 121t-16.5 121.5t-49 98.5t-80.5 66t-110 24z" />
<glyph unicode="&#x2122;" horiz-adv-x="638" d="M534 561l-78 -188h-40l-79 192h-3v-259h-48v389h48l104 -254l101 254h47v-389h-49v255h-3zM165 649v-342h-49v342h-84v47h217v-47h-84z" />
<glyph unicode="&#x2126;" horiz-adv-x="408" d="M320 58h50v-58h-126v69q26 11 41.5 33t15.5 57v376q0 22 -5.5 42t-17.5 35.5t-30.5 24.5t-44.5 9q-35 0 -54 -14.5t-29 -36t-12 -47.5t-2 -49v-341q0 -35 15.5 -57t40.5 -32v-69h-125v58h51v2q-20 15 -31.5 42.5t-11.5 69.5v333q0 42 7.5 78t25.5 62.5t48.5 41.5t76.5 15 q48 0 78.5 -13t48.5 -38t24.5 -60.5t6.5 -80.5v-336q0 -33 -9.5 -65.5t-32.5 -49.5z" />
<glyph unicode="&#x212b;" horiz-adv-x="386" d="M316 0l-37 168h-173l-36 -168h-58l150 696h62l153 -696h-61zM191 594l-33 -168l-42 -200h152l-42 202l-32 166h-3zM192 702q-36 0 -61 25t-25 61t25 61t61 25q35 0 60 -25t25 -61t-25 -61t-60 -25zM192 838q-21 0 -36 -15t-15 -36t15 -36t36 -15q20 0 35 15t15 36t-15 36 t-35 15z" />
<glyph unicode="&#x212e;" horiz-adv-x="804" d="M190 307v-40t0.5 -51.5t0.5 -51.5v-40q16 -26 39.5 -47t52 -35t59.5 -21.5t63 -7.5q64 0 120.5 27.5t96.5 75.5h53q-48 -59 -119.5 -93t-151.5 -34q-70 0 -131.5 26t-108 71t-73.5 104.5t-27 126.5q0 66 27 125t73.5 102.5t108 69t131.5 25.5q72 0 133 -24.5t106 -68.5 t71.5 -105t29.5 -134h-554zM618 507q-15 25 -38.5 45.5t-52 35t-60 22.5t-62.5 8q-57 0 -113 -31t-101 -83v-35.5t-0.5 -51.5t-0.5 -51.5v-35.5h428v177z" />
<glyph unicode="&#x2153;" horiz-adv-x="580" d="M118 279v364l-67 -47v52l68 47h48v-416h-49zM131 -17h-42l314 731h42zM528 87q0 -43 -23 -67t-68 -24q-51 0 -73 26.5t-20 72.5l51 6q-2 -28 8 -44.5t35 -16.5q20 0 30.5 13t10.5 34v59q0 26 -11.5 37t-34.5 11h-25v43h26q22 0 33.5 10t11.5 33v50q0 17 -8.5 31t-32.5 14 q-25 0 -35.5 -17t-10.5 -43l-51 8q2 41 26 68t73 27q26 0 43 -7t27 -19t14 -28t4 -34v-35q0 -23 -4.5 -42.5t-27.5 -35.5q22 -11 27 -29t5 -44v-57z" />
<glyph unicode="&#x2154;" horiz-adv-x="580" d="M134 654q-20 0 -32 -16.5t-12 -51.5l-51 8q-1 48 23 76t73 28q50 0 72.5 -25t22.5 -67q0 -50 -27 -96l-104 -184h127v-47h-185v39l119 214q10 18 14 36t4 37t-9 34t-35 15zM165 -17h-42l314 731h42zM542 87q0 -43 -23 -67t-68 -24q-51 0 -73 26.5t-20 72.5l51 6 q-2 -28 8 -44.5t35 -16.5q20 0 30.5 13t10.5 34v59q0 26 -11.5 37t-34.5 11h-25v43h26q22 0 33.5 10t11.5 33v50q0 17 -8.5 31t-32.5 14q-25 0 -35.5 -17t-10.5 -43l-51 8q2 41 26 68t73 27q26 0 43 -7t27 -19t14 -28t4 -34v-35q0 -23 -4.5 -42.5t-27.5 -35.5q22 -11 27 -29 t5 -44v-57z" />
<glyph unicode="&#x2155;" horiz-adv-x="580" d="M115 279v364l-67 -47v52l68 47h48v-416h-49zM122 -17h-42l314 731h42zM532 85q0 -43 -23 -66.5t-68 -23.5q-49 0 -72 26t-20 71l51 6q-2 -26 7 -43.5t35 -17.5q21 0 31 12.5t10 34.5v107q0 20 -11 29t-31 9q-31 0 -44 -24h-41v212h176v-42h-132v-121h1q11 9 24.5 12.5 t27.5 3.5q38 0 58.5 -20t20.5 -52v-113z" />
<glyph unicode="&#x2156;" horiz-adv-x="580" d="M130 654q-20 0 -32 -16.5t-12 -51.5l-51 8q-1 48 23 76t73 28q50 0 72.5 -25t22.5 -67q0 -50 -27 -96l-104 -184h127v-47h-185v39l119 214q10 18 14 36t4 37t-9 34t-35 15zM163 -17h-42l314 731h42zM546 85q0 -43 -23 -66.5t-68 -23.5q-49 0 -72 26t-20 71l51 6 q-2 -26 7 -43.5t35 -17.5q21 0 31 12.5t10 34.5v107q0 20 -11 29t-31 9q-31 0 -44 -24h-41v212h176v-42h-132v-121h1q11 9 24.5 12.5t27.5 3.5q38 0 58.5 -20t20.5 -52v-113z" />
<glyph unicode="&#x2157;" horiz-adv-x="580" d="M221 366q0 -43 -23 -67t-68 -24q-51 0 -73 26.5t-20 72.5l51 6q-2 -28 8 -44.5t35 -16.5q20 0 30.5 13t10.5 34v59q0 26 -11.5 37t-34.5 11h-25v43h26q22 0 33.5 10t11.5 33v50q0 17 -8.5 31t-32.5 14q-25 0 -35.5 -17t-10.5 -43l-51 8q2 41 26 68t73 27q26 0 43 -7 t27 -19t14 -28t4 -34v-35q0 -23 -4.5 -42.5t-27.5 -35.5q22 -11 27 -29t5 -44v-57zM154 -17h-42l314 731h42zM545 85q0 -43 -23 -66.5t-68 -23.5q-49 0 -72 26t-20 71l51 6q-2 -26 7 -43.5t35 -17.5q21 0 31 12.5t10 34.5v107q0 20 -11 29t-31 9q-31 0 -44 -24h-41v212h176 v-42h-132v-121h1q11 9 24.5 12.5t27.5 3.5q38 0 58.5 -20t20.5 -52v-113z" />
<glyph unicode="&#x2158;" horiz-adv-x="580" d="M211 345v-66h-49v66h-132v41l94 309h51l-94 -305h81v113h49v-113h35v-45h-35zM170 -17h-42l314 731h42zM550 85q0 -43 -23 -66.5t-68 -23.5q-49 0 -72 26t-20 71l51 6q-2 -26 7 -43.5t35 -17.5q21 0 31 12.5t10 34.5v107q0 20 -11 29t-31 9q-31 0 -44 -24h-41v212h176 v-42h-132v-121h1q11 9 24.5 12.5t27.5 3.5q38 0 58.5 -20t20.5 -52v-113z" />
<glyph unicode="&#x2159;" horiz-adv-x="580" d="M124 279v364l-67 -47v52l68 47h48v-416h-49zM152 -17h-42l314 731h42zM430 -4q-47 0 -70 22t-23 62v67q0 25 4 41t9 28q6 15 18 42.5t25 57.5t24.5 57.5t17.5 42.5h52q-12 -27 -24 -56.5t-22.5 -55t-18 -44.5t-8.5 -23l14 4t15 2q41 0 60 -22t19 -57v-87 q0 -40 -27.5 -60.5t-64.5 -20.5zM471 164q0 16 -11.5 26t-28.5 10q-23 0 -33.5 -14.5t-10.5 -31.5v-80q0 -17 11.5 -25.5t31.5 -8.5q18 0 29.5 8.5t11.5 25.5v90z" />
<glyph unicode="&#x215a;" horiz-adv-x="580" d="M233 364q0 -43 -23 -66.5t-68 -23.5q-49 0 -72 26t-20 71l51 6q-2 -26 7 -43.5t35 -17.5q21 0 31 12.5t10 34.5v107q0 20 -11 29t-31 9q-31 0 -44 -24h-41v212h176v-42h-132v-121h1q11 9 24.5 12.5t27.5 3.5q38 0 58.5 -20t20.5 -52v-113zM179 -17h-42l314 731h42z M439 -4q-47 0 -70 22t-23 62v67q0 25 4 41t9 28q6 15 18 42.5t25 57.5t24.5 57.5t17.5 42.5h52q-12 -27 -24 -56.5t-22.5 -55t-18 -44.5t-8.5 -23l14 4t15 2q41 0 60 -22t19 -57v-87q0 -40 -27.5 -60.5t-64.5 -20.5zM480 164q0 16 -11.5 26t-28.5 10q-23 0 -33.5 -14.5 t-10.5 -31.5v-80q0 -17 11.5 -25.5t31.5 -8.5q18 0 29.5 8.5t11.5 25.5v90z" />
<glyph unicode="&#x215b;" horiz-adv-x="580" d="M118 279v364l-67 -47v52l68 47h48v-416h-49zM138 -17h-42l314 731h42zM528 280q0 -22 -8.5 -37t-22.5 -26q14 -11 22.5 -25.5t8.5 -37.5v-74q0 -40 -27.5 -62t-64.5 -22q-47 0 -70 22t-23 62v74q0 41 32 63q-32 21 -32 63v56q0 40 28 61.5t65 21.5t64.5 -21.5t27.5 -61.5 v-56zM478 158q0 16 -11.5 27.5t-30.5 11.5q-20 0 -31.5 -11.5t-11.5 -27.5v-81q0 -17 11.5 -27t31.5 -10q18 0 30 10.5t12 27.5v80zM478 339q0 16 -12 26.5t-30 10.5q-20 0 -31.5 -10.5t-11.5 -26.5v-65q0 -15 11.5 -25t31.5 -10q18 0 30 10t12 25v65z" />
<glyph unicode="&#x215c;" horiz-adv-x="580" d="M229 366q0 -43 -23 -67t-68 -24q-51 0 -73 26.5t-20 72.5l51 6q-2 -28 8 -44.5t35 -16.5q20 0 30.5 13t10.5 34v59q0 26 -11.5 37t-34.5 11h-25v43h26q22 0 33.5 10t11.5 33v50q0 17 -8.5 31t-32.5 14q-25 0 -35.5 -17t-10.5 -43l-51 8q2 41 26 68t73 27q26 0 43 -7 t27 -19t14 -28t4 -34v-35q0 -23 -4.5 -42.5t-27.5 -35.5q22 -11 27 -29t5 -44v-57zM160 -17h-42l314 731h42zM538 280q0 -22 -8.5 -37t-22.5 -26q14 -11 22.5 -25.5t8.5 -37.5v-74q0 -40 -27.5 -62t-64.5 -22q-47 0 -70 22t-23 62v74q0 41 32 63q-32 21 -32 63v56 q0 40 28 61.5t65 21.5t64.5 -21.5t27.5 -61.5v-56zM488 158q0 16 -11.5 27.5t-30.5 11.5q-20 0 -31.5 -11.5t-11.5 -27.5v-81q0 -17 11.5 -27t31.5 -10q18 0 30 10.5t12 27.5v80zM488 339q0 16 -12 26.5t-30 10.5q-20 0 -31.5 -10.5t-11.5 -26.5v-65q0 -15 11.5 -25 t31.5 -10q18 0 30 10t12 25v65z" />
<glyph unicode="&#x215d;" horiz-adv-x="580" d="M227 364q0 -43 -23 -66.5t-68 -23.5q-49 0 -72 26t-20 71l51 6q-2 -26 7 -43.5t35 -17.5q21 0 31 12.5t10 34.5v107q0 20 -11 29t-31 9q-31 0 -44 -24h-41v212h176v-42h-132v-121h1q11 9 24.5 12.5t27.5 3.5q38 0 58.5 -20t20.5 -52v-113zM159 -17h-42l314 731h42z M536 280q0 -22 -8.5 -37t-22.5 -26q14 -11 22.5 -25.5t8.5 -37.5v-74q0 -40 -27.5 -62t-64.5 -22q-47 0 -70 22t-23 62v74q0 41 32 63q-32 21 -32 63v56q0 40 28 61.5t65 21.5t64.5 -21.5t27.5 -61.5v-56zM486 158q0 16 -11.5 27.5t-30.5 11.5q-20 0 -31.5 -11.5 t-11.5 -27.5v-81q0 -17 11.5 -27t31.5 -10q18 0 30 10.5t12 27.5v80zM486 339q0 16 -12 26.5t-30 10.5q-20 0 -31.5 -10.5t-11.5 -26.5v-65q0 -15 11.5 -25t31.5 -10q18 0 30 10t12 25v65z" />
<glyph unicode="&#x215e;" horiz-adv-x="580" d="M119 279h-48l116 374h-91v-49h-46v91h189v-35zM132 -17h-42l314 731h42zM530 280q0 -22 -8.5 -37t-22.5 -26q14 -11 22.5 -25.5t8.5 -37.5v-74q0 -40 -27.5 -62t-64.5 -22q-47 0 -70 22t-23 62v74q0 41 32 63q-32 21 -32 63v56q0 40 28 61.5t65 21.5t64.5 -21.5 t27.5 -61.5v-56zM480 158q0 16 -11.5 27.5t-30.5 11.5q-20 0 -31.5 -11.5t-11.5 -27.5v-81q0 -17 11.5 -27t31.5 -10q18 0 30 10.5t12 27.5v80zM480 339q0 16 -12 26.5t-30 10.5q-20 0 -31.5 -10.5t-11.5 -26.5v-65q0 -15 11.5 -25t31.5 -10q18 0 30 10t12 25v65z" />
<glyph unicode="&#x215f;" horiz-adv-x="367" d="M140 -17h-42l314 731h42zM118 279v364l-67 -47v52l68 47h48v-416h-49z" />
<glyph unicode="&#x2190;" horiz-adv-x="826" d="M768 347v-52h-599l156 -153l-38 -38l-216 217l216 217l38 -38l-156 -153h599z" />
<glyph unicode="&#x2191;" horiz-adv-x="485" d="M270 1h-52v596l-152 -154l-38 38l217 217l217 -217l-38 -38l-154 154v-596z" />
<glyph unicode="&#x2192;" horiz-adv-x="826" d="M670 347l-156 153l39 38l216 -217l-216 -217l-39 38l156 153h-598v52h598z" />
<glyph unicode="&#x2193;" horiz-adv-x="485" d="M270 101l154 156l38 -38l-217 -217l-217 217l38 38l153 -156v598h51v-598z" />
<glyph unicode="&#x2196;" horiz-adv-x="840" d="M212 589l550 -547l-37 -37l-549 549v-219h-52v306h307v-52h-219z" />
<glyph unicode="&#x2198;" horiz-adv-x="840" d="M673 59l-550 547l37 37l548 -549v218h53v-306h-308v53h220z" />
<glyph unicode="&#x21a9;" horiz-adv-x="840" d="M142 347h498q30 0 50.5 9t33.5 24.5t18.5 37t5.5 45.5v81q0 48 -25.5 75t-82.5 27h-69v51h74q43 0 73 -12t49 -33t27 -50t8 -62v-77q0 -77 -41.5 -122.5t-128.5 -45.5h-490l155 -153l-39 -38l-215 217l215 217l39 -38z" />
<glyph unicode="&#x21aa;" horiz-adv-x="832" d="M549 500l38 38l216 -217l-216 -217l-38 38l156 153h-492q-87 0 -128 45.5t-41 122.5v77q0 33 8 62t26.5 50t48.5 33t73 12h74v-51h-69q-57 0 -82 -27t-25 -75v-81q0 -24 5.5 -45.5t18 -37t33 -24.5t50.5 -9h500z" />
<glyph unicode="&#x21b3;" horiz-adv-x="840" d="M174 347h535l-155 153l37 38l216 -217l-215 -217l-38 38l155 152h-589v398h54v-345z" />
<glyph unicode="&#x21b5;" horiz-adv-x="840" d="M733 692h54v-398h-589l155 -152l-38 -38l-214 217l214 217l38 -38l-155 -153h535v345z" />
<glyph unicode="&#x21de;" horiz-adv-x="485" d="M276 370h112v-53h-112v-89h112v-53h-112v-175h-54v175h-112v53h112v89h-112v53h112v224l-153 -152l-37 38l216 216l217 -216l-37 -38l-153 152z" />
<glyph unicode="&#x21df;" horiz-adv-x="485" d="M275 100l153 154l37 -38l-217 -216l-216 216l37 38l153 -154v226h-112v53h112v89h-112v53h112v175h54v-175h112v-53h-112v-89h112v-53h-112z" />
<glyph unicode="&#x21e0;" horiz-adv-x="824" d="M310 346v-52h-155l157 -153l-38 -37l-216 217l108 108l108 108q9 -9 19 -18t19 -19l-157 -154h155zM521 346h90v-52h-90v52zM370 346h89v-52h-89v52zM673 346h79v-52h-79v52z" />
<glyph unicode="&#x21e1;" horiz-adv-x="480" d="M267 382v-88h-53v88h53zM267 232v-89h-53v89h53zM267 81v-80h-53v80h53zM267 444h-52v153l-153 -156l-38 38l218 217l216 -217l-37 -38l-154 156v-153z" />
<glyph unicode="&#x21e2;" horiz-adv-x="824" d="M441 294h-89v53h89v-53zM290 294h-90v53h90v-53zM138 294h-79v53h79v-53zM656 347l-158 153l39 38l216 -217l-216 -217l-39 38l158 153h-155v52h155z" />
<glyph unicode="&#x21e3;" horiz-adv-x="480" d="M266 98q38 40 77 78.5t77 77.5q10 -9 19 -18.5t18 -19.5l-216 -216l-217 216l37 38q38 -39 77 -77.5t77 -78.5v154h51v-154zM214 463v90h52v-90h-52zM214 313v89h52v-89h-52zM214 615v80h52v-80h-52z" />
<glyph unicode="&#x21e4;" horiz-adv-x="812" d="M76 106v430h54v-430h-54zM782 347v-52h-505l156 -153l-39 -38l-216 217l216 217l39 -38l-156 -153h505z" />
<glyph unicode="&#x21e5;" horiz-adv-x="812" d="M730 106v430h53v-430h-53zM582 347l-156 153l39 38l216 -217l-216 -217l-39 38l156 153h-505v52h505z" />
<glyph unicode="&#x21e7;" horiz-adv-x="813" d="M45 321l363 376l363 -376h-180v-321h-365v321h-181zM408 632l-262 -271h124v-317h278v317h122z" />
<glyph unicode="&#x21ea;" horiz-adv-x="818" d="M222 -10h365v-180h-365v180zM266 -53v-93h278v93h-278zM41 321l364 376l363 -376h-181v-239h-365v239h-181zM405 632l-263 -271h124v-235h278v235h122z" />
<glyph unicode="&#x2202;" horiz-adv-x="319" d="M68 217q0 -87 24.5 -128.5t57.5 -41.5q24 0 41.5 22.5t29.5 58.5t18.5 80t8.5 87q-26 52 -49.5 71t-46.5 19q-20 0 -35.5 -15t-26.5 -39t-16.5 -54t-5.5 -60zM23 215q0 53 10 95t27.5 71t40.5 44.5t49 15.5q27 0 51 -15t47 -54q-1 70 -8.5 125t-24 93t-43.5 58t-67 20 q-14 0 -29 -3l-1 48q18 3 35 3q58 0 94 -28.5t56.5 -77.5t28 -116t7.5 -143q0 -177 -41.5 -269t-105.5 -92q-54 0 -90 57t-36 168z" />
<glyph unicode="&#x2207;" horiz-adv-x="386" d="M376 696q-6 -29 -18.5 -84t-27 -122.5t-31 -141.5t-31 -141.5t-26.5 -122.5t-18 -84h-62l-151 696h365zM194 115l37 178l72 346h-222q17 -75 35.5 -166t36.5 -179q11 -56 20.5 -102.5t16.5 -76.5h4z" />
<glyph unicode="&#x220f;" horiz-adv-x="411" d="M297 -81v722h-183v-722h-61v777h306v-777h-62z" />
<glyph unicode="&#x2211;" horiz-adv-x="302" d="M17 -80v54l108 334l-111 335v53h270v-57h-208l111 -331l-108 -330h215v-58h-277z" />
<glyph unicode="&#x2212;" horiz-adv-x="367" d="M12 269v49h342v-49h-342z" />
<glyph unicode="&#x221a;" horiz-adv-x="351" d="M217 -83h-44l-100 421q-3 -2 -10.5 -5.5t-15.5 -7.5t-15.5 -7.5t-10.5 -4.5l-12 47l96 46l88 -379q6 40 14.5 101.5t19 134t22 150t21.5 150t18.5 134t14.5 101.5h46z" />
<glyph unicode="&#x221e;" horiz-adv-x="631" d="M165 400q46 0 84.5 -30t65.5 -69q32 42 68.5 70.5t85.5 28.5q54 0 88.5 -35.5t34.5 -94.5q0 -29 -9.5 -53t-27 -41t-41 -27t-51.5 -10q-44 0 -80 28.5t-69 69.5q-17 -21 -33.5 -39t-34.5 -31t-39 -20.5t-47 -7.5q-54 0 -88.5 34.5t-34.5 96.5q0 28 10 51.5t27 41 t40.5 27.5t50.5 10zM165 355q-35 0 -58.5 -25t-23.5 -60q0 -39 23 -62t59 -23t66.5 24.5t53.5 59.5q-10 15 -23 30.5t-28.5 27.5t-32.5 20t-36 8zM466 355q-37 0 -66 -25t-56 -60q13 -17 26.5 -32.5t28 -27t30.5 -18.5t35 -7q35 0 58.5 23.5t23.5 61.5q0 37 -22.5 61 t-57.5 24z" />
<glyph unicode="&#x2227;" horiz-adv-x="393" d="M360 0h-53l-114 436l-109 -436h-52l136 518h50z" />
<glyph unicode="&#x2228;" horiz-adv-x="393" d="M218 0h-50l-136 517h52l109 -435l114 435h53z" />
<glyph unicode="&#x2229;" horiz-adv-x="393" d="M361 0h-55v292q0 28 -2.5 59t-13 56t-33 41.5t-61.5 16.5t-61.5 -16t-33.5 -41.5t-14 -56t-3 -59.5v-292h-52v292q0 41 5 81t22.5 72t49.5 51.5t86 19.5t86.5 -19.5t50.5 -51t23.5 -71.5t5.5 -82v-292z" />
<glyph unicode="&#x222a;" horiz-adv-x="393" d="M361 224q0 -41 -5.5 -81.5t-23.5 -72t-50.5 -51t-86.5 -19.5t-86 19.5t-49.5 51.5t-22.5 72t-5 81v292h52v-292q0 -29 3 -59.5t14 -55.5t33.5 -41.5t61.5 -16.5t61.5 16.5t33 42t13 56t2.5 58.5v292h55v-292z" />
<glyph unicode="&#x222b;" horiz-adv-x="289" d="M243 767q25 0 52 -7l-10 -44q-9 2 -16.5 3t-15.5 1q-23 0 -38.5 -9.5t-25 -32.5t-14 -63t-5.5 -100q-4 -144 -5.5 -272t-7.5 -222q-6 -93 -37.5 -133t-90.5 -40q-12 0 -22 1t-22 5l9 44q15 -3 29 -3q23 0 39 8.5t26 27.5t15.5 50t7.5 76q1 36 2 96.5t2 133.5t3 151.5 t6 152.5q5 93 34.5 134.5t84.5 41.5z" />
<glyph unicode="&#x2248;" horiz-adv-x="367" d="M104 410q24 0 44 -7t39 -16t36.5 -16t35.5 -7q19 0 30.5 8t29.5 30l35 -22q-17 -29 -40 -49.5t-55 -20.5q-19 0 -38 7.5t-38.5 16t-39 16t-40.5 7.5q-18 0 -30.5 -8t-29.5 -28l-33 24q16 27 39.5 46t54.5 19zM103 266q24 0 44 -7t39 -16t36.5 -16t35.5 -7q19 0 30.5 8 t29.5 30l35 -22q-17 -29 -40 -49.5t-55 -20.5q-19 0 -38 7.5t-38.5 16t-39 16t-40.5 7.5q-18 0 -30.5 -8t-29.5 -28l-33 24q16 27 39.5 46t54.5 19z" />
<glyph unicode="&#x2260;" horiz-adv-x="367" d="M11 83l77 110h-76v51h112l69 98h-181v50h216l75 107h52l-75 -107h74v-50h-109l-69 -98h178v-51h-214l-77 -110h-52z" />
<glyph unicode="&#x2264;" horiz-adv-x="367" d="M15 266v50l337 140v-51l-265 -114l265 -116v-52zM16 20v50h335v-50h-335z" />
<glyph unicode="&#x2265;" horiz-adv-x="367" d="M16 123v52l264 116l-264 114v51l337 -140v-50zM16 20v50h336v-50h-336z" />
<glyph unicode="&#x2303;" horiz-adv-x="795" d="M108 414l289 289l289 -288l-42 -42l-247 246l-247 -247z" />
<glyph unicode="&#x2318;" horiz-adv-x="824" d="M273 485v82q0 34 -23.5 57.5t-56.5 23.5q-35 0 -59 -23t-24 -58t23.5 -58.5t59.5 -23.5h80zM548 485h81q35 0 58.5 24t23.5 58t-23.5 57.5t-58.5 23.5q-34 0 -57.5 -23t-23.5 -58v-82zM273 212h-80q-36 0 -59.5 -24.5t-23.5 -57.5q0 -35 23.5 -59t59.5 -24q34 0 57 24 t23 59v82zM548 212v-82q0 -35 23.5 -59t57.5 -24q35 0 58.5 24t23.5 59q0 33 -23.5 57.5t-58.5 24.5h-81zM492 266v165h-163v-165h163zM548 266h81q34 0 60 -11t43 -29.5t25.5 -43.5t8.5 -52t-8.5 -52t-25.5 -44t-43 -30t-60 -11q-33 0 -58.5 11t-43 29.5t-26.5 43.5t-9 53 v82h-163v-82q0 -27 -8.5 -51.5t-25.5 -43.5t-42.5 -30.5t-59.5 -11.5q-32 0 -57.5 10.5t-43.5 29.5t-27.5 43.5t-9.5 53.5q0 28 9.5 52.5t27 43t43 29.5t58.5 11h80v165h-80q-28 0 -53 11t-44 29.5t-30 43t-11 52.5t10 53t28.5 43.5t44 29.5t55.5 11q34 0 59.5 -11 t42.5 -29.5t25.5 -43.5t8.5 -53v-82h163v82q0 28 10 53t28 43.5t43.5 29.5t55.5 11q33 0 58.5 -11t43 -30t26.5 -43.5t9 -52.5q0 -27 -11 -51.5t-29.5 -43.5t-43.5 -30t-53 -11h-81v-165z" />
<glyph unicode="&#x2324;" horiz-adv-x="795" d="M121 310l285 301l285 -300l-41 -42l-244 260l-243 -260zM695 696v-59h-577v59h577z" />
<glyph unicode="&#x2325;" horiz-adv-x="1188" d="M43 668h275l342 -610h471v-58h-517l-342 609h-229v59zM525 668h606v-59h-606v59z" />
<glyph unicode="&#x2326;" horiz-adv-x="1148" d="M749 0h-659v695h659l338 -348zM1006 347l-289 292h-573v-584h573zM504 310l-158 -160l-39 39l159 158l-159 159l39 39l158 -159l159 159l38 -39l-158 -159l158 -158l-38 -39z" />
<glyph unicode="&#x232b;" horiz-adv-x="1148" d="M91 347l338 348h658v-695h-659zM459 55h573v584h-573l-289 -292zM514 150l-38 39l158 158l-158 159l38 39l160 -159l158 159l38 -39l-159 -159l159 -158l-38 -39l-158 160z" />
<glyph unicode="&#x235f;" horiz-adv-x="804" d="M752 346q0 -73 -28 -137.5t-76 -112.5t-112.5 -75.5t-137.5 -27.5t-137 27.5t-112 75.5t-75.5 112.5t-27.5 138.5q0 73 27.5 137.5t75.5 112.5t112.5 75.5t138.5 27.5q73 0 137.5 -28t112.5 -76t75.5 -112.5t27.5 -137.5h-1zM693 346q0 61 -23 115t-63 94t-94 63t-115 23 t-115 -23t-94 -63t-63 -94t-23 -115t23 -114.5t63 -93.5t94 -63t115 -23t115 23t94 63t63 93.5t23 114.5zM521 301l26 -169l-157 76l-141 -76l21 165l-118 117l163 32l75 148l80 -146l164 -34z" />
<glyph unicode="&#x23cf;" horiz-adv-x="854" d="M768 227v-136h-702v136h702zM768 314h-702l351 351z" />
<glyph unicode="&#x25a0;" horiz-adv-x="875" d="M756 40h-633v633h633v-633z" />
<glyph unicode="&#x25a1;" horiz-adv-x="841" d="M133 48h586v595h-586v-595zM82 0v693h687v-693h-687z" />
<glyph unicode="&#x25b2;" horiz-adv-x="820" d="M781 176h-702l351 351z" />
<glyph unicode="&#x25b6;" horiz-adv-x="595" d="M138 701l351 -350l-351 -351v701z" />
<glyph unicode="&#x25bc;" horiz-adv-x="820" d="M430 176l-351 351h702z" />
<glyph unicode="&#x25c0;" horiz-adv-x="595" d="M452 0l-351 351l351 350v-701z" />
<glyph unicode="&#x25ca;" horiz-adv-x="337" d="M133 3l-112 287l112 287h65q28 -72 56.5 -143.5t57.5 -143.5l-114 -287h-65zM75 288q23 -58 45 -115t45 -115h2l91 230q-23 58 -46.5 116t-46.5 116h-2l-44 -116t-45 -116h1z" />
<glyph unicode="&#x25cf;" horiz-adv-x="843" d="M744 357q0 -64 -25 -121.5t-68.5 -101t-101 -69t-121.5 -25.5q-65 0 -122.5 25t-101 68.5t-68.5 101t-25 122.5q0 66 26 123.5t69.5 100t101 67.5t120.5 25t120 -25t100.5 -68.5t69.5 -101t26 -121.5z" />
<glyph unicode="&#x25fc;" horiz-adv-x="490" d="M0 490h490v-490h-490v490z" />
<glyph unicode="&#x2602;" horiz-adv-x="780" d="M405 695q55 0 112.5 -27.5t104.5 -73.5t77 -106t30 -124q-16 18 -40 28.5t-50 10.5q-23 0 -45 -9.5t-41 -29.5h-2q-23 39 -75 39q-28 0 -62 -14v-304q0 -42 -25.5 -67.5t-73.5 -25.5q-42 0 -69.5 23.5t-27.5 74.5v13h47v-13q0 -28 13.5 -41t34.5 -13q16 0 26 5t15.5 13 t7.5 18t2 20v296q-14 7 -27 9.5t-25 2.5q-26 0 -46.5 -10t-38.5 -27q-17 20 -40 29.5t-47 9.5q-25 0 -48.5 -9.5t-40.5 -29.5l-1 1q0 64 30.5 123.5t77.5 106t105 74.5t113 28v31h29v-32zM730 363q-1 0 -1 1z" />
<glyph unicode="&#x2605;" horiz-adv-x="814" d="M605 254l39 -258l-239 117l-214 -117l32 251l-181 180l249 48l114 226l123 -223l250 -51z" />
<glyph unicode="&#x2606;" horiz-adv-x="838" d="M608 257l39 -259l-240 117l-218 -119l33 255l-183 182l254 49l113 225l124 -223l254 -51zM727 415l-213 43l-107 193l-98 -196l-212 -40l153 -153l-27 -216l184 99l206 -99l-35 221z" />
<glyph unicode="&#x2610;" horiz-adv-x="841" d="M133 48h586v595h-586v-595zM82 0v693h687v-693h-687z" />
<glyph unicode="&#x2611;" horiz-adv-x="850" d="M82 0v693h687v-693h-687zM133 47h587v596h-587v-596zM702 583q-26 -20 -56 -53.5t-60.5 -75t-60.5 -87t-57 -90.5t-49.5 -85.5t-37.5 -71.5q-51 -9 -71 -20q-8 30 -21.5 71t-29 80t-32 70.5t-30.5 42.5q17 13 37.5 18t33.5 5q9 0 21.5 -17.5t25 -45t23 -61.5t15.5 -67 q29 48 69.5 105t86 112t93.5 102t92 75z" />
<glyph unicode="&#x2612;" horiz-adv-x="850" d="M614 583l41 -40l-192 -192l195 -195l-43 -40l-193 195l-194 -197l-40 42l193 193l-193 193l41 41l194 -195zM134 48h586v595h-586v-595zM83 0v693h687v-693h-687z" />
<glyph unicode="&#x2622;" horiz-adv-x="837" d="M418 432q16 0 30.5 -7t25 -18t16.5 -25.5t6 -30.5t-6 -30t-16.5 -24.5t-25 -17t-30.5 -6.5q-31 0 -55.5 22t-24.5 56t23.5 57.5t56.5 23.5zM569 89q-79 -41 -154 -41q-81 0 -148 42l98 170q30 -14 54 -14q20 0 50 14zM364 442q-23 -14 -36 -37.5t-16 -53.5h-197 q0 86 35.5 149t114.5 114zM569 615q72 -40 112 -108t40 -156h-197q-6 62 -55 93zM416 684q-68 0 -128 -26.5t-105 -72t-71 -106t-26 -128.5q0 -70 26.5 -130.5t72 -105.5t106.5 -70.5t129 -25.5q66 0 125.5 26.5t105 71.5t72 103.5t26.5 122.5q0 79 -28.5 142t-75 107 t-106.5 68t-123 24zM418 -17q-77 0 -144 28.5t-117 78t-78.5 117t-28.5 144.5q0 67 26 132t74 117t115.5 84t150.5 32q78 0 146 -28t118 -76.5t78.5 -114t28.5 -141.5q0 -77 -28.5 -145t-78 -118.5t-117 -80t-145.5 -29.5z" />
<glyph unicode="&#x2623;" horiz-adv-x="856" d="M553 462q-13 -27 -37 -43q-44 30 -86 30q-41 0 -89 -30q-14 8 -22 18.5t-15 24.5q32 21 62 32t62 11q64 0 125 -43zM502 120q-7 12 -11.5 25t-6.5 27q88 44 88 124v12t-1 14q11 7 27 8.5t27 1.5q4 -16 4 -37q0 -54 -33.5 -101t-93.5 -74zM351 120q-28 12 -51 30 t-39.5 41.5t-25.5 50t-9 54.5q0 21 4 38h12q22 -2 42 -12v-30q0 -76 88 -120q-2 -14 -7.5 -27.5t-13.5 -24.5zM272 531q0 -68 38 -107.5t111 -48.5v-22q-23 -5 -32.5 -18.5t-9.5 -27.5q0 -5 1 -9.5t3 -9.5l-19 -10q-60 72 -133 72q-29 0 -56.5 -12t-48.5 -32.5t-34 -47.5 t-13 -57q0 -22 6 -56l-11 -5q-8 25 -13.5 50.5t-5.5 50.5q0 29 8 57t26.5 52.5t48 45t73.5 34.5q0 63 11.5 109.5t35 78t59.5 51t86 28.5l5 -15q-136 -39 -136 -151zM583 533q0 109 -118 148l5 16q91 -20 134 -77t43 -155v-16t-1 -17q78 -31 116 -83.5t38 -119.5 q0 -45 -18 -96l-13 4q8 43 8 65q0 30 -12.5 56.5t-33.5 46t-49.5 30.5t-60.5 11q-40 0 -71.5 -19t-55.5 -52l-23 13q3 10 3 20q0 16 -9 27.5t-30 17.5v22q72 9 110 49.5t38 108.5zM428 53q-42 -32 -81 -42.5t-74 -10.5q-26 0 -49 4t-43.5 14t-40 27t-39.5 43l11 8 q68 -60 117 -60q33 0 62 12.5t50.5 33.5t34 49.5t12.5 60.5q0 12 -2.5 30t-15.5 41l22 13q7 -11 17.5 -14.5t20.5 -3.5q18 0 33 17l23 -12q-17 -41 -17 -72t12 -58.5t33 -48.5t48 -33t57 -12q66 0 122 54l12 -8q-19 -26 -38 -42.5t-39.5 -26t-43.5 -13t-50 -3.5 q-38 0 -77.5 10.5t-76.5 42.5z" />
<glyph unicode="&#x262e;" horiz-adv-x="834" d="M410 713q78 0 145.5 -28t117.5 -76.5t78.5 -113.5t28.5 -139q0 -77 -29 -144t-79.5 -116.5t-118.5 -78t-145 -28.5q-73 0 -138.5 29t-115 78.5t-78.5 116t-29 140.5q0 75 28.5 141t78 114.5t115.5 76.5t141 28zM675 204q18 32 28.5 69t10.5 83q0 58 -19 108t-54.5 88.5 t-86 64.5t-113.5 35v-239zM384 413v239q-60 -8 -110 -33t-86 -64.5t-56 -91.5t-20 -112q0 -27 2.5 -47t7.5 -36t12.5 -31.5t18.5 -33.5zM441 338v-289q59 7 107 34t93 75zM384 338l-197 -180q23 -22 45 -40t45 -32.5t49 -24t58 -14.5v291z" />
<glyph unicode="&#x262f;" horiz-adv-x="828" d="M525 174q-21 0 -34.5 15.5t-13.5 33.5q0 23 15.5 37.5t32.5 14.5q22 0 36.5 -16t14.5 -36q0 -22 -15.5 -35.5t-35.5 -13.5zM253 488q0 -20 13 -35t36 -15q22 0 36.5 15t14.5 35q0 18 -14 33.5t-38 15.5q-17 0 -32.5 -13.5t-15.5 -35.5zM50 356q0 82 31.5 148.5t82.5 114 t116 73.5t133 26q82 0 149.5 -29.5t115.5 -79.5t74 -116.5t26 -140.5q0 -82 -29.5 -148.5t-79.5 -114t-115.5 -73t-138.5 -25.5q-81 0 -148.5 30.5t-115.5 81t-74.5 116.5t-26.5 137zM249 649q21 6 42 6q41 0 74.5 -15.5t57 -39t36.5 -51t13 -52.5q0 -51 -19.5 -94.5 t-67.5 -91.5q-21 -21 -29 -51.5t-8 -51.5q0 -74 45.5 -115.5t128.5 -41.5q43 0 85 23.5t75 64.5t53.5 96t20.5 118q0 66 -24.5 128.5t-69.5 110.5t-108 77.5t-141 29.5q-45 0 -87.5 -11.5t-81.5 -34.5z" />
<glyph unicode="&#x2672;" horiz-adv-x="919" d="M668 448l-211 21l60 38l-46 81l-124 -185l-169 98l103 166q11 18 27 28t42 10h243q20 0 27.5 -2.5t14.5 -13.5l53 -87l64 38zM50 421h211l85 -183l-60 35l-31 -28q-16 -15 -16 -29q0 -25 31 -25h192v-211h-185q-32 0 -45 10.5t-23 28.5l-113 208q-7 12 -9.5 25t-2.5 27 q0 26 7 50t25 43zM593 372l172 102l95 -176q9 -18 9 -30q0 -11 -3.5 -20.5t-8.5 -18.5l-108 -194q-9 -16 -15.5 -26.5t-13 -17t-15 -9t-21.5 -2.5h-84v-77l-111 175l110 169v-70h109zM199 504l144 -83l120 181q-19 37 -47.5 61t-71.5 24q-29 0 -48 -28zM311 275l-61 131 h-158l47 -32q-19 -18 -29.5 -42.5t-10.5 -50.5q0 -29 9.5 -46.5t25 -27t34.5 -13t37 -3.5h28q-11 8 -11 24q0 20 19 39l42 38zM448 178h-237q-17 0 -28.5 1t-20 2.5t-16 4t-15.5 5.5l88 -163q9 -16 19.5 -25.5t33.5 -9.5h176v185zM686 582l-59 93q-6 10 -13 13.5t-19 3.5 h-204q31 -7 51.5 -33t38.5 -58l56 -100l-37 -23l159 -15l67 145zM611 368l115 -191q19 2 41 10t41 20.5t31.5 28.5t12.5 34q0 7 -2 13t-4 11l-89 159zM587 206l-81 -128l81 -130v45h96q9 0 20.5 5t20.5 21l103 188q-32 -30 -67.5 -37.5t-88.5 -7.5h-84v44z" />
<glyph unicode="&#x2673;" horiz-adv-x="869" d="M536 0v-59h-16l-74 95l78 98l13 -2v-59h128q36 0 52.5 12t16.5 32q0 19 -16 46l-100 170l67 39l111 -194q23 -39 23 -73q0 -48 -40.5 -76.5t-102.5 -28.5h-140zM393 73v-73h-213q-60 0 -95 28.5t-35 75.5q0 36 24 78l73 131l-46 25l7 13l118 22l42 -112l-8 -15l-47 29 l-64 -116q-13 -24 -13 -43q0 -18 13.5 -30.5t45.5 -12.5h198zM624 400l-121 21l-6 12l49 27l-71 120q-8 14 -19.5 22t-25.5 8t-27 -10t-21 -25l-99 -174l-64 37l106 185q22 38 49.5 54.5t57.5 16.5q31 0 59.5 -18t46.5 -50l73 -129l51 29l6 -14zM452 120h-55v228l-36 -25v57 l42 30h49v-290z" />
<glyph unicode="&#x2674;" horiz-adv-x="869" d="M329 124v46l107 134q14 15 14 33q0 11 -8 20t-23 9q-14 0 -23.5 -11.5t-12.5 -31.5l-52 6q6 42 31 64.5t57 22.5q36 0 60 -20t24 -58q0 -14 -5 -29.5t-16 -29.5l-83 -104h99v-51h-169zM536 0v-59h-16l-74 95l78 98l13 -2v-59h128q36 0 52.5 12t16.5 32q0 19 -16 46 l-100 170l67 39l111 -194q23 -39 23 -73q0 -48 -40.5 -76.5t-102.5 -28.5h-140zM393 73v-73h-213q-60 0 -95 28.5t-35 75.5q0 36 24 78l73 131l-46 25l7 13l118 22l42 -112l-8 -15l-47 29l-64 -116q-13 -24 -13 -43q0 -18 13.5 -30.5t45.5 -12.5h198zM624 400l-121 21l-6 12 l49 27l-71 120q-8 14 -19.5 22t-25.5 8t-27 -10t-21 -25l-99 -174l-64 37l106 185q22 38 49.5 54.5t57.5 16.5q31 0 59.5 -18t46.5 -50l73 -129l51 29l6 -14z" />
<glyph unicode="&#x2675;" horiz-adv-x="869" d="M536 0v-59h-16l-74 95l78 98l13 -2v-59h128q36 0 52.5 12t16.5 32q0 19 -16 46l-100 170l67 39l111 -194q23 -39 23 -73q0 -48 -40.5 -76.5t-102.5 -28.5h-140zM393 73v-73h-213q-60 0 -95 28.5t-35 75.5q0 36 24 78l73 131l-46 25l7 13l118 22l42 -112l-8 -15l-47 29 l-64 -116q-13 -24 -13 -43q0 -18 13.5 -30.5t45.5 -12.5h198zM624 400l-121 21l-6 12l49 27l-71 120q-8 14 -19.5 22t-25.5 8t-27 -10t-21 -25l-99 -174l-64 37l106 185q22 38 49.5 54.5t57.5 16.5q31 0 59.5 -18t46.5 -50l73 -129l51 29l6 -14zM505 214q0 -42 -24.5 -67.5 t-66.5 -25.5q-14 0 -27.5 3.5t-25 12.5t-20 24t-12.5 37l51 7q4 -19 13.5 -27t21.5 -8q18 0 28.5 12.5t10.5 30.5q0 19 -10.5 28.5t-26.5 9.5h-29v48h26q16 0 26.5 9.5t10.5 23.5t-10 24t-24 10q-11 0 -20 -9.5t-14 -26.5l-52 6q7 35 31 57.5t55 22.5q45 0 65.5 -25 t20.5 -58q0 -15 -5 -29t-22 -27q17 -14 23 -30t6 -33z" />
<glyph unicode="&#x2676;" horiz-adv-x="869" d="M536 0v-59h-16l-74 95l78 98l13 -2v-59h128q36 0 52.5 12t16.5 32q0 19 -16 46l-100 170l67 39l111 -194q23 -39 23 -73q0 -48 -40.5 -76.5t-102.5 -28.5h-140zM393 73v-73h-213q-60 0 -95 28.5t-35 75.5q0 36 24 78l73 131l-46 25l7 13l118 22l42 -112l-8 -15l-47 29 l-64 -116q-13 -24 -13 -43q0 -18 13.5 -30.5t45.5 -12.5h198zM624 400l-121 21l-6 12l49 27l-71 120q-8 14 -19.5 22t-25.5 8t-27 -10t-21 -25l-99 -174l-64 37l106 185q22 38 49.5 54.5t57.5 16.5q31 0 59.5 -18t46.5 -50l73 -129l51 29l6 -14zM477 167v-41h-51v41h-117v43 l96 206h56l-93 -200h58v70h51v-70h22v-49h-22z" />
<glyph unicode="&#x2677;" horiz-adv-x="869" d="M536 0v-59h-16l-74 95l78 98l13 -2v-59h128q36 0 52.5 12t16.5 32q0 19 -16 46l-100 170l67 39l111 -194q23 -39 23 -73q0 -48 -40.5 -76.5t-102.5 -28.5h-140zM393 73v-73h-213q-60 0 -95 28.5t-35 75.5q0 36 24 78l73 131l-46 25l7 13l118 22l42 -112l-8 -15l-47 29 l-64 -116q-13 -24 -13 -43q0 -18 13.5 -30.5t45.5 -12.5h198zM624 400l-121 21l-6 12l49 27l-71 120q-8 14 -19.5 22t-25.5 8t-27 -10t-21 -25l-99 -174l-64 37l106 185q22 38 49.5 54.5t57.5 16.5q31 0 59.5 -18t46.5 -50l73 -129l51 29l6 -14zM510 215q0 -41 -22 -69 t-67 -28q-31 0 -54.5 16t-32.5 60l51 10q8 -38 36 -38q13 0 20.5 5.5t11.5 14t5.5 18.5t1.5 19q0 19 -6.5 34.5t-28.5 15.5q-10 0 -18 -7t-15 -18h-47v162h151v-50h-102v-47q10 5 19.5 7t19.5 2q38 0 57.5 -25t19.5 -64v-18z" />
<glyph unicode="&#x2678;" horiz-adv-x="869" d="M536 0v-59h-16l-74 95l78 98l13 -2v-59h128q36 0 52.5 12t16.5 32q0 19 -16 46l-100 170l67 39l111 -194q23 -39 23 -73q0 -48 -40.5 -76.5t-102.5 -28.5h-140zM393 73v-73h-213q-60 0 -95 28.5t-35 75.5q0 36 24 78l73 131l-46 25l7 13l118 22l42 -112l-8 -15l-47 29 l-64 -116q-13 -24 -13 -43q0 -18 13.5 -30.5t45.5 -12.5h198zM624 400l-121 21l-6 12l49 27l-71 120q-8 14 -19.5 22t-25.5 8t-27 -10t-21 -25l-99 -174l-64 37l106 185q22 38 49.5 54.5t57.5 16.5q31 0 59.5 -18t46.5 -50l73 -129l51 29l6 -14zM514 211q0 -24 -7.5 -42 t-20 -29t-28.5 -16.5t-33 -5.5q-38 0 -62 22.5t-24 67.5q0 14 3.5 30t12.5 33q17 33 36.5 69t36.5 70h56l-55 -113h6q35 0 57 -25.5t22 -60.5zM460 209q0 20 -10 30t-24 10t-24.5 -10t-10.5 -30t9.5 -31t25.5 -11q14 0 24 11t10 31z" />
<glyph unicode="&#x2679;" horiz-adv-x="869" d="M536 0v-59h-16l-74 95l78 98l13 -2v-59h128q36 0 52.5 12t16.5 32q0 19 -16 46l-100 170l67 39l111 -194q23 -39 23 -73q0 -48 -40.5 -76.5t-102.5 -28.5h-140zM393 73v-73h-213q-60 0 -95 28.5t-35 75.5q0 36 24 78l73 131l-46 25l7 13l118 22l42 -112l-8 -15l-47 29 l-64 -116q-13 -24 -13 -43q0 -18 13.5 -30.5t45.5 -12.5h198zM624 400l-121 21l-6 12l49 27l-71 120q-8 14 -19.5 22t-25.5 8t-27 -10t-21 -25l-99 -174l-64 37l106 185q22 38 49.5 54.5t57.5 16.5q31 0 59.5 -18t46.5 -50l73 -129l51 29l6 -14zM412 115h-56l95 239h-61v-41 h-52v92h172v-44z" />
<glyph unicode="&#x267a;" horiz-adv-x="869" d="M536 0v-59h-16l-74 95l78 98l13 -2v-59h128q36 0 52.5 12t16.5 32q0 19 -16 46l-100 170l67 39l111 -194q23 -39 23 -73q0 -48 -40.5 -76.5t-102.5 -28.5h-140zM393 73v-73h-213q-60 0 -95 28.5t-35 75.5q0 36 24 78l73 131l-46 25l7 13l118 22l42 -112l-8 -15l-47 29 l-64 -116q-13 -24 -13 -43q0 -18 13.5 -30.5t45.5 -12.5h198zM624 400l-121 21l-6 12l49 27l-71 120q-8 14 -19.5 22t-25.5 8t-27 -10t-21 -25l-99 -174l-64 37l106 185q22 38 49.5 54.5t57.5 16.5q31 0 59.5 -18t46.5 -50l73 -129l51 29l6 -14z" />
<glyph unicode="&#x267b;" horiz-adv-x="889" d="M730 616l-82 -144h-167l52 33l-74 133q-12 21 -27.5 34.5t-29.5 21.5h181q28 0 37.5 -6t15.5 -17l46 -82zM321 695q36 0 63.5 -19t42.5 -39l-121 -220l-147 87l83 146q13 17 33 31t46 14zM738 495l86 -148q15 -25 15 -52q0 -24 -11 -44t-28 -34.5t-39 -22.5t-43 -8h-8 l-123 222zM303 290l-46 27l-72 -131q-17 -27 -25 -47.5t-8 -33.5l-88 152q-14 24 -14 39q0 8 5 23l50 86l-41 20h161zM469 80l86 137v-60h149q16 0 44 7.5t51 22.5l-100 -152q-15 -23 -32 -29t-31 -6h-81v-58zM448 0h-189q-11 0 -25.5 4.5t-27.5 14t-22 25.5t-9 40 q0 18 6.5 35.5t17.5 37.5h249v-157z" />
<glyph unicode="&#x267c;" horiz-adv-x="836" d="M786 352q0 -76 -29 -143t-79 -117t-117 -79t-143 -29t-143 29t-117 79t-79 117t-29 143t29 143t79 117t117 79t143 29t143 -29t117 -79t79 -117t29 -143zM593 538l-34 61q-5 9 -12 13t-27 4h-137q11 -5 22.5 -15t20.5 -26l55 -100l-39 -25h125l62 108zM323 617 q-20 0 -35.5 -9.5t-23.5 -24.5l-62 -109l111 -65l90 165q-12 15 -32.5 29t-47.5 14zM522 403l92 -166h6q16 0 32 6t29 16.5t21 25.5t8 33q0 9 -2 19t-9 20l-64 111zM251 415h-120l30 -14l-38 -64q-5 -8 -5 -19q0 -13 10 -30l69 -111q0 20 23 60l55 97l34 -19zM498 54v43h61 q9 0 22.5 5t24.5 22l75 113q-17 -10 -38.5 -16.5t-32.5 -6.5h-112v46l-64 -102zM418 214h-186q-18 -27 -18 -53q0 -18 6.5 -30.5t16.5 -20t20.5 -10.5t18.5 -3h142v117z" />
<glyph unicode="&#x267d;" horiz-adv-x="836" d="M786 353q0 -76 -29 -143t-79 -117t-117 -79t-143 -29t-143 29t-117 79t-79 117t-29 143t29 143t79 117t117 79t143 29t143 -29t117 -79t79 -117t29 -143zM767 353q0 72 -27.5 135.5t-74.5 111t-111 75t-136 27.5t-135.5 -27.5t-111 -75t-75 -111t-27.5 -135.5t27.5 -136 t75 -111t111 -74.5t135.5 -27.5t136 27.5t111 74.5t74.5 111t27.5 136zM631 558l-62 -108h-125l39 25l-55 100q-9 16 -20.5 26t-22.5 15h137q20 0 27 -4t12 -13l34 -61zM325 617q27 0 47.5 -14t32.5 -29l-90 -165l-111 65l62 109q8 15 23.5 24.5t35.5 9.5zM637 468l64 -111 q7 -10 9 -20t2 -19q0 -18 -8 -33t-21 -25.5t-29 -16.5t-32 -6h-6l-92 166zM311 315l-34 19l-55 -97q-23 -40 -23 -60l-69 111q-10 17 -10 30q0 11 5 19l38 64l-30 14h120zM436 158l64 102v-46h112q11 0 32.5 6.5t38.5 16.5l-75 -113q-11 -17 -24.5 -22t-22.5 -5h-61v-43z M420 97h-142q-8 0 -18.5 3t-20.5 10.5t-16.5 20t-6.5 30.5q0 26 18 53h186v-117z" />
<glyph unicode="&#x2693;" horiz-adv-x="698" d="M381 68q33 3 70 14.5t81 52.5l-40 35l142 41l-21 -152l-38 41q-54 -55 -111 -79t-115 -29q-58 5 -115 29t-110 79l-38 -41l-22 152l142 -41l-40 -35q22 -21 42 -33.5t39 -19.5t36.5 -10t34.5 -4v397h-128v48h128v12q-27 8 -44 32t-17 53q0 38 26.5 64t63.5 26q18 0 34 -7 t28 -19t19 -28.5t7 -35.5q0 -29 -15.5 -50.5t-40.5 -31.5v-15h130v-48h-130v-397h2z" />
<glyph unicode="&#x26a0;" horiz-adv-x="884" d="M437 525q24 0 36 -13.5t12 -32.5l-29 -281q-2 -8 -8.5 -13t-11.5 -5q-6 0 -12.5 5t-7.5 13l-23 281q0 16 12 31t32 15zM437 75q-6 0 -14 2t-14.5 6.5t-11.5 13t-5 21.5q0 4 2 11t7.5 14t14 11.5t21.5 4.5q17 0 29.5 -11.5t12.5 -31.5q0 -19 -12.5 -30t-29.5 -11zM391 669 q11 19 24 27.5t27 8.5q13 0 25.5 -8.5t22.5 -25.5l331 -588q10 -17 10 -37t-12.5 -33t-40.5 -13h-675q-29 0 -41.5 13.5t-12.5 32.5q0 18 11 37zM125 90q-5 -8 -8.5 -14t-3.5 -11t6 -7t23 -2h597q17 0 23 2t6 7t-4 11.5t-9 14.5l-297 526q-9 17 -19 17q-5 0 -10 -5t-9 -12z " />
<glyph unicode="&#x2706;" horiz-adv-x="432" d="M268 501q-26 0 -36 -38t-10 -125q0 -12 2 -36t7 -48.5t14 -43.5t23 -21v-201q-9 0 -24 6t-33 21t-37 41t-34.5 66t-25 95.5t-9.5 130.5q0 113 20.5 183t48 109t54.5 53.5t40 15.5v-208zM281 -12v201h60q8 0 14 -4.5t6 -15.5v-160q0 -8 -4.5 -14.5t-15.5 -6.5h-60z M281 501v208h60q8 0 14 -6t6 -14v-163q0 -25 -20 -25h-60z" />
<glyph unicode="&#x2708;" horiz-adv-x="890" d="M566 246l-208 -351h-96l115 351h-191l-61 -80h-75l38 127l-41 126h75l64 -84h192l-112 359h95l207 -359h247q25 0 38 -14.5t13 -31.5q0 -16 -12.5 -29.5t-37.5 -13.5h-250z" />
<glyph unicode="&#x2709;" horiz-adv-x="1070" d="M353 330l-229 228v-454zM712 337l227 -227v456zM169 64h726l-222 224l-143 -144l-137 136zM162 610l368 -371l366 371h-734zM1005 671v-671h-941v671h941z" />
<glyph unicode="&#x2713;" horiz-adv-x="764" d="M756 656q-35 -27 -75.5 -72.5t-82 -102.5t-82.5 -121.5t-78 -127t-67.5 -120t-50.5 -100.5q-36 -8 -62 -16t-39 -16q-7 29 -17.5 66.5t-23.5 77.5t-28 79t-30 71.5t-29.5 54t-26.5 27.5q23 20 52 28.5t49 8.5q13 0 31 -23.5t35.5 -61t31.5 -83.5t19 -91q37 65 91 142.5 t115.5 152.5t126.5 139.5t126 104.5z" />
<glyph unicode="&#x2716;" horiz-adv-x="742" d="M717 172l-173 -174l-173 175l-173 -175l-173 174l175 172l-175 172l173 174l173 -174l173 174l173 -174l-174 -172z" />
<glyph unicode="&#x271a;" horiz-adv-x="748" d="M264 666h230v-218h218v-230h-213v-218h-231v218h-217v230h213v218z" />
<glyph unicode="&#x272a;" horiz-adv-x="796" d="M752 346q0 -74 -28 -138.5t-76 -112.5t-112.5 -75.5t-138.5 -27.5t-138.5 27.5t-112.5 75.5t-76 112.5t-28 138.5q0 73 28 138t76 113t112.5 76t138.5 28t138.5 -28t112.5 -76t76 -113t28 -138zM484 468l-96 177l-91 -179l-196 -39l141 -140l-24 -199l170 92l189 -92 l-32 204l137 135z" />
<glyph unicode="&#x2794;" horiz-adv-x="728" d="M305 65l238 239h-519v86h519l-238 236h122l278 -279l-280 -281z" />
<glyph unicode="&#xe000;" horiz-adv-x="367" d="M319 121q0 -32 -11 -56t-29.5 -40t-43 -24t-51.5 -8t-51.5 8t-43 24t-29.5 40t-11 56v452q0 31 11 55.5t29.5 40.5t43 24.5t51.5 8.5q57 0 96 -33t39 -96v-452zM257 575q0 32 -20.5 50.5t-52.5 18.5q-33 0 -54 -18.5t-21 -50.5v-456q0 -32 21 -50.5t54 -18.5 q32 0 52.5 18.5t20.5 50.5v456z" />
<glyph unicode="&#xe001;" horiz-adv-x="367" d="M198 0v631l-104 -79v66l102 78h63v-696h-61z" />
<glyph unicode="&#xe002;" horiz-adv-x="367" d="M185 644q-35 0 -55.5 -27.5t-20.5 -88.5l-60 11q0 78 34 120t104 43q73 0 104.5 -41.5t31.5 -109.5q0 -44 -8.5 -81.5t-28.5 -75.5l-168 -337h200v-57h-268v55l186 373q14 29 18.5 59.5t4.5 63.5q0 17 -2.5 34t-10.5 30t-22.5 21t-38.5 8z" />
<glyph unicode="&#xe003;" horiz-adv-x="367" d="M317 135q0 -72 -37.5 -107t-99.5 -35q-69 0 -102 38.5t-31 110.5l61 12q-2 -48 14.5 -76t59.5 -28q32 0 53.5 19t21.5 64v111q0 48 -19.5 68.5t-57.5 20.5h-29v55h31q36 0 55.5 19t19.5 65v94q0 16 -3.5 30t-12 24.5t-22 17t-33.5 6.5q-41 0 -59.5 -28.5t-18.5 -73.5 q-3 1 -11.5 2t-19 2.5t-19 3t-11.5 1.5q1 33 10 60.5t27 47.5t44.5 31.5t61.5 11.5q36 0 60.5 -10.5t39.5 -29t21.5 -43.5t6.5 -54v-81q0 -19 -2 -37t-8.5 -33.5t-18.5 -28.5t-32 -22v-2q21 -8 33 -20.5t18.5 -29t8 -36.5t1.5 -43z" />
<glyph unicode="&#xe004;" horiz-adv-x="367" d="M291 115v-115h-62v115h-205v56l146 525h61l-147 -525h145v194h62v-194h53v-56h-53z" />
<glyph unicode="&#xe005;" horiz-adv-x="367" d="M183 -7q-70 0 -102.5 40t-34.5 112l61 9q0 -47 15 -75.5t62 -28.5q32 0 52 19t21 65l2 186q0 38 -19.5 55t-52.5 17q-25 0 -44 -11t-28 -30h-54v345h258v-55h-204v-228h4q15 15 38 23t49 8q57 0 85.5 -32t28.5 -81l-2 -195q-1 -72 -37.5 -107.5t-97.5 -35.5z" />
<glyph unicode="&#xe006;" horiz-adv-x="367" d="M257 276q0 31 -20.5 48.5t-52.5 17.5q-20 0 -34 -7.5t-23 -19.5t-13.5 -27t-4.5 -30v-141q0 -32 21 -49.5t54 -17.5q32 0 52.5 17.5t20.5 49.5v159zM144 378q11 9 27 15t32 6q60 0 88 -36t28 -90v-152q0 -32 -11 -56t-29.5 -40t-43 -24t-51.5 -8t-51.5 8t-43 24t-29.5 40 t-11 56v122q0 40 5.5 67t13.5 48l131 338h62q-20 -52 -40.5 -106t-37.5 -98.5t-28.5 -75t-13.5 -36.5z" />
<glyph unicode="&#xe007;" horiz-adv-x="367" d="M139 0h-60l181 641h-162v-84h-53v139h277v-51z" />
<glyph unicode="&#xe008;" horiz-adv-x="367" d="M319 471q0 -39 -16 -65.5t-41 -42.5q25 -16 41 -43t16 -65v-134q0 -32 -11 -56t-29.5 -40t-43 -24t-51.5 -8t-51.5 8t-43 24t-29.5 40t-11 56v134q0 38 15 65t41 43q-26 15 -41 42t-15 66v102q0 31 11 55.5t29.5 40.5t43 24.5t51.5 8.5t51.5 -8.5t43 -24.5t29.5 -40.5 t11 -55.5v-102zM257 268q0 31 -20.5 50t-52.5 20q-33 0 -54 -19.5t-21 -50.5v-151q0 -32 21 -49.5t54 -17.5q32 0 52.5 17.5t20.5 49.5v151zM257 577q0 32 -20.5 50t-52.5 18q-33 0 -54 -18t-21 -50v-118q0 -31 21 -49.5t54 -18.5q32 0 52.5 18.5t20.5 49.5v118z" />
</font>
</defs>
</svg>
