<?xml version="1.0" standalone="no"?>
<!DOCTYPE svg PUBLIC "-//W3C//DTD SVG 1.1//EN" "http://www.w3.org/Graphics/SVG/1.1/DTD/svg11.dtd" >
<svg xmlns="http://www.w3.org/2000/svg">
<metadata></metadata>
<defs>
<font id="pf_din_text_comp_proXTh" horiz-adv-x="1818" >
<font-face units-per-em="1000" ascent="750" descent="-250" />
<missing-glyph horiz-adv-x="160" />
<glyph unicode="fj" horiz-adv-x="325" d="M265 487v-595q0 -55 -24.5 -75.5t-68.5 -20.5h-4v22h4q43 0 55.5 21t12.5 62v564h-146v-465h-25v465h-57v22h57v140q0 48 26.5 73.5t72.5 25.5q24 0 48.5 -6.5t47.5 -25.5l-15 -18q-22 20 -45 23.5t-37 3.5q-37 0 -55 -20t-18 -54v-142h171z" />
<glyph unicode="ffj" horiz-adv-x="496" d="M436 487v-595q0 -55 -24.5 -75.5t-68.5 -20.5h-4v22h4q43 0 55.5 21t12.5 62v564h-146v-465h-25v465h-146v-465h-25v465h-57v22h57v125q0 48 27 77t74 29q16 0 40 -3.5t48 -18.5q17 21 38 30.5t45 9.5t47.5 -6.5t45.5 -26.5l-15 -17q-24 21 -45 24.5t-34 3.5 q-32 0 -53.5 -20.5t-21.5 -54.5v-152h171zM240 487v150q0 8 1 18.5t5 20.5q-21 14 -45 16.5t-32 2.5q-41 0 -58 -23.5t-17 -57.5v-127h146z" />
<glyph unicode="ff" horiz-adv-x="344" d="M357 742v-22h-14q-44 0 -61 -23.5t-17 -59.5v-150h86v-22h-86v-465h-25v465h-146v-465h-25v465h-57v22h57v136q0 48 29.5 73.5t71.5 25.5q16 0 39 -3.5t47 -17.5q14 22 36.5 31.5t50.5 9.5h14zM240 632q0 8 1.5 22t4.5 26q-21 14 -45 16.5t-32 2.5q-37 0 -56 -20t-19 -54 v-138h146v145z" />
<glyph unicode="fi" horiz-adv-x="325" d="M240 0v465h-146v-465h-25v465h-57v22h57v140q0 48 26.5 73.5t72.5 25.5q24 0 48.5 -6.5t47.5 -25.5l-15 -18q-22 20 -45 23.5t-37 3.5q-37 0 -55 -20t-18 -54v-142h171v-487h-25z" />
<glyph unicode="fl" horiz-adv-x="342" d="M193 465h-99v-465h-25v465h-59v22h59v134q0 58 25.5 85.5t73.5 27.5q18 0 44 -3t55 -14v-609q0 -41 14.5 -67t55.5 -26h12v-22h-14q-44 0 -68.5 23.5t-24.5 82.5v599q-23 6 -40.5 8t-34.5 2q-42 0 -57.5 -23.5t-15.5 -68.5v-129h99v-22z" />
<glyph unicode="ffi" horiz-adv-x="496" d="M240 487v150q0 8 1 18.5t5 20.5q-21 14 -45 16.5t-32 2.5q-41 0 -58 -23.5t-17 -57.5v-127h146zM436 0h-25v465h-146v-465h-25v465h-146v-465h-25v465h-57v22h57v125q0 48 27 77t74 29q16 0 40 -3.5t48 -18.5q17 21 38 30.5t45 9.5t48.5 -6.5t47.5 -25.5l-15 -18 q-22 20 -45 23.5t-37 4.5q-32 0 -53.5 -20.5t-21.5 -54.5v-152h171v-487z" />
<glyph unicode="ffl" horiz-adv-x="515" d="M170 714q16 0 39.5 -4t48.5 -18q16 24 37.5 33t45.5 9q18 0 44.5 -3t54.5 -14v-609q0 -41 14.5 -67t55.5 -26h12v-22h-14q-44 0 -68.5 23.5t-24.5 82.5v602q-23 7 -40.5 9t-34.5 2q-39 0 -57 -25.5t-18 -70.5v-129h106v-22h-106v-465h-25v465h-146v-465h-25v465h-57v22 h57v128q0 48 29.5 73.5t71.5 25.5zM240 487v134q0 30 7 51q-11 7 -22.5 10.5t-22.5 5.5t-20 2.5t-13 0.5q-37 0 -56 -20t-19 -54v-130h146z" />
<glyph unicode="ft" horiz-adv-x="373" d="M94 0h-25v465h-57v22h57v129q0 61 29.5 85.5t73.5 24.5h14v-22h-14q-44 0 -61 -23.5t-17 -59.5v-134h146v140h25v-140h79v-22h-79v-359q0 -36 17 -60t61 -24h9v-22h-9q-22 0 -40.5 6t-32.5 19t-22 34t-8 52v354h-146v-465z" />
<glyph unicode=" "  horiz-adv-x="160" />
<glyph unicode="&#x09;" horiz-adv-x="160" />
<glyph unicode="&#xa0;" horiz-adv-x="160" />
<glyph unicode="!" horiz-adv-x="185" d="M82 153q-1 64 -1.5 132.5t-0.5 138.5t-0.5 138.5t-1.5 133.5h29q-1 -65 -1.5 -133.5t-0.5 -138.5t-0.5 -138.5t-1.5 -132.5h-21zM76 0v35h34v-35h-34z" />
<glyph unicode="&#x22;" horiz-adv-x="161" d="M98 696h23v-158h-23v158zM40 696h23v-158h-23v158z" />
<glyph unicode="#" horiz-adv-x="340" d="M1 241h60l41 216h-51v20h55l43 225h23l-43 -225h130l43 225h23l-43 -225h57v-20h-61l-41 -216h48v-19h-52l-42 -222h-22l42 222h-131l-42 -222h-22l42 222h-57v19zM84 241h130l41 216h-130z" />
<glyph unicode="$" horiz-adv-x="340" d="M322 178q0 -41 -7 -74t-23 -57t-43.5 -38t-67.5 -16v-102h-22v102q-39 1 -66 12.5t-44 31t-25 45t-9 55.5l27 5q0 -24 6.5 -46t20.5 -39t36 -28t54 -12v343q-47 22 -74 41.5t-41.5 39.5t-18.5 42t-4 49q0 36 8 66t24.5 52.5t42.5 35.5t63 15v95h22v-94q41 -2 68.5 -15 t43.5 -32.5t22.5 -44t6.5 -48.5l-26 -6q0 23 -6 44.5t-19.5 38t-35.5 27t-54 12.5v-300l14 -6q46 -20 71.5 -39t38 -41.5t15 -50t2.5 -63.5zM295 177q0 36 -3 60.5t-15 43.5t-34.5 35t-61.5 34v-333q37 2 59.5 16t34.5 35.5t16 49.5t4 59zM48 533q0 -24 4.5 -43.5t16.5 -36 t33.5 -32t56.5 -32.5v288q-35 -2 -56.5 -16.5t-33.5 -35t-16.5 -45t-4.5 -47.5z" />
<glyph unicode="%" horiz-adv-x="524" d="M464 347q0 23 -16 36t-42 13q-27 0 -43 -13t-16 -36v-279q0 -22 16 -35t43 -13q26 0 42 13t16 35v279zM406 -4q-34 0 -59 17.5t-25 54.5v279q0 38 25 55t59 17q33 0 58 -17t25 -55v-279q0 -37 -25 -54.5t-58 -17.5zM175 627q0 23 -16 36t-42 13q-27 0 -43 -13t-16 -36 v-279q0 -22 16 -35t43 -13q26 0 42 13t16 35v279zM117 276q-34 0 -59 17.5t-25 54.5v279q0 38 25 55t59 17q33 0 58 -17t25 -55v-279q0 -37 -25 -54.5t-58 -17.5zM103 -17h-25l314 731h25z" />
<glyph unicode="&#x26;" horiz-adv-x="451" d="M215 701q41 0 65.5 -10t43.5 -34l-22 -16q-14 21 -37.5 28.5t-47.5 7.5t-41.5 -10t-29.5 -26t-17.5 -36t-5.5 -39q0 -29 7 -59t28 -66l186 -318q18 38 26 74t11 70h23q-2 -40 -14.5 -85t-30.5 -81l61 -101h-32l-46 78q-21 -27 -40.5 -44t-38.5 -26t-36.5 -12t-34.5 -3 q-30 0 -56.5 9t-46 29t-31 51.5t-11.5 75.5q0 60 28 117t88 106q-7 11 -15 24.5t-14 24.5q-23 41 -30 74t-7 63q0 28 8.5 52.5t24 42.5t37 28.5t48.5 10.5zM176 360q-63 -56 -83.5 -107t-20.5 -95q0 -62 30.5 -102.5t95.5 -40.5q28 0 63 18.5t67 63.5z" />
<glyph unicode="'" horiz-adv-x="123" d="M50 696h23v-158h-23v158z" />
<glyph unicode="(" horiz-adv-x="219" d="M179 -118q-25 38 -46 86t-36.5 101.5t-24.5 111t-9 115.5q0 54 8 110.5t22.5 111t35.5 104.5t48 91l11 -5q-46 -91 -73.5 -196.5t-27.5 -209.5q0 -113 28.5 -220t73.5 -195z" />
<glyph unicode=")" horiz-adv-x="219" d="M63 -113q45 88 73.5 195t28.5 220q0 104 -27.5 209.5t-73.5 196.5l11 5q27 -41 48 -91t35.5 -104.5t22.5 -111t8 -110.5q0 -58 -9 -115.5t-24.5 -111t-36.5 -101.5t-46 -86z" />
<glyph unicode="*" horiz-adv-x="318" d="M254 447l-25 -17l-68 111l-66 -111l-25 17l76 102l-118 38l9 30l114 -50l-6 127h31l-7 -127l116 50l9 -30l-118 -38z" />
<glyph unicode="+" horiz-adv-x="340" d="M180 125h-23v156h-138v24h138v153h23v-153h138v-24h-138v-156z" />
<glyph unicode="," horiz-adv-x="107" d="M48 -82h-18l17 82h-9v36h36v-36z" />
<glyph unicode="-" horiz-adv-x="309" d="M49 300h222v-28h-222v28z" />
<glyph unicode="." horiz-adv-x="107" d="M36 0v38h36v-38h-36z" />
<glyph unicode="/" horiz-adv-x="219" d="M29 -42h-23l186 767h23z" />
<glyph unicode="0" horiz-adv-x="340" d="M268 588q0 42 -27.5 66.5t-70.5 24.5q-44 0 -71 -24.5t-27 -66.5v-480q0 -42 27 -66.5t71 -24.5q43 0 70.5 24.5t27.5 66.5v480zM170 -7q-25 0 -47 7t-39 21t-27 35.5t-10 51.5v480q0 29 10 50.5t27 35.5t39 21t47 7t47 -7t39 -21t27 -35.5t10 -50.5v-480 q0 -30 -10 -51.5t-27 -35.5t-39 -21t-47 -7z" />
<glyph unicode="1" horiz-adv-x="340" d="M192 667l-110 -74v30l108 73h27v-695h-25v666z" />
<glyph unicode="2" horiz-adv-x="340" d="M72 24h221v-24h-246v26l197 398q17 35 23 66t6 69q0 23 -4.5 45t-15.5 38.5t-30.5 26.5t-50.5 10q-18 0 -35.5 -5.5t-32 -18.5t-23.5 -34.5t-9 -53.5l-24 4q1 35 11 60t26.5 40.5t39 23t48.5 7.5q67 0 96.5 -39.5t29.5 -103.5q0 -50 -9 -83.5t-27 -69.5z" />
<glyph unicode="3" horiz-adv-x="340" d="M172 702q34 0 57.5 -8.5t38 -25t21 -40t5.5 -52.5v-70q0 -18 -1.5 -40t-8 -42t-20 -35.5t-37.5 -22.5q22 -7 35.5 -21t20.5 -32.5t9 -40t2 -43.5v-109q0 -56 -28.5 -91.5t-96.5 -35.5q-23 0 -44.5 6.5t-38.5 22t-27.5 41t-10.5 63.5l25 5q0 -52 22 -83t75 -31 q44 0 71.5 24t27.5 79v122q0 31 -7.5 52t-19.5 34t-28 18.5t-33 5.5h-25v27h27q17 0 32.5 5.5t27.5 17.5t19 32t7 49v103q0 43 -24 68t-75 25q-52 0 -74.5 -32t-22.5 -79l-25 5q0 60 31 94.5t93 34.5z" />
<glyph unicode="4" horiz-adv-x="340" d="M258 1h-25v126h-205v23l144 546h25l-146 -546h182v196h25v-196h60v-23h-60v-126z" />
<glyph unicode="5" horiz-adv-x="340" d="M273 318q0 54 -28.5 77t-70.5 23q-29 0 -54.5 -12t-34.5 -32h-25v322h233v-21h-210v-268h2q15 16 39.5 25t55.5 9q53 0 85.5 -29t32.5 -83v-209q0 -56 -28.5 -91.5t-96.5 -35.5q-23 0 -44.5 6.5t-38.5 22t-27.5 41t-10.5 63.5l25 5q0 -52 22 -83t75 -31q44 0 71.5 24 t27.5 79v198z" />
<glyph unicode="6" horiz-adv-x="340" d="M47 245q0 27 4 47t11 38l138 366h25l-128 -339h3q11 12 32 21t41 9q24 0 46 -7t38.5 -21t26 -35.5t9.5 -50.5v-164q0 -30 -10 -51.5t-27 -35.5t-39 -21t-47 -7t-47 7t-39 21t-27 35.5t-10 51.5v136zM268 272q0 42 -27.5 66.5t-70.5 24.5q-23 0 -41.5 -9t-31 -24.5 t-19 -35t-6.5 -40.5v-146q0 -42 27 -66.5t71 -24.5q43 0 70.5 24.5t27.5 66.5v164z" />
<glyph unicode="7" horiz-adv-x="340" d="M64 675v-88h-22v109h258v-21l-192 -675h-25l192 675h-211z" />
<glyph unicode="8" horiz-adv-x="340" d="M170 -7q-25 0 -47 7t-39 21t-27 35.5t-10 51.5v149q0 39 17.5 64.5t45.5 37.5q-28 12 -45.5 37.5t-17.5 66.5v125q0 29 10 50.5t27 35.5t39 21t47 7t47 -7t39 -21t27 -35.5t10 -50.5v-125q0 -41 -17.5 -66t-45.5 -38q28 -12 45.5 -37.5t17.5 -64.5v-149q0 -30 -10 -51.5 t-27 -35.5t-39 -21t-47 -7zM268 257q0 41 -26.5 65t-71.5 26q-44 0 -71 -24.5t-27 -66.5v-149q0 -42 27 -66.5t71 -24.5q43 0 70.5 24.5t27.5 66.5v149zM268 588q0 42 -27.5 66.5t-70.5 24.5q-44 0 -71 -24.5t-27 -66.5v-125q0 -42 27 -66.5t71 -24.5q43 0 70.5 24.5 t27.5 66.5v125z" />
<glyph unicode="9" horiz-adv-x="340" d="M293 451q0 -27 -4 -47t-11 -38l-138 -366h-25l128 339h-3q-11 -12 -32 -21t-41 -9q-24 0 -46 7t-38.5 21t-26 35.5t-9.5 50.5v164q0 30 10 51.5t27 35.5t39 21t47 7t47 -7t39 -21t27 -35.5t10 -51.5v-136zM72 424q0 -42 27.5 -66.5t70.5 -24.5q23 0 41.5 9t31 24.5t19 35 t6.5 40.5v146q0 42 -27 66.5t-71 24.5q-43 0 -70.5 -24.5t-27.5 -66.5v-164z" />
<glyph unicode=":" horiz-adv-x="107" d="M37 309v38h36v-38h-36zM37 0v38h36v-38h-36z" />
<glyph unicode=";" horiz-adv-x="107" d="M48 -82h-18l17 82h-9v36h36v-36zM37 309v38h36v-38h-36z" />
<glyph unicode="&#x3c;" horiz-adv-x="340" d="M318 108l-299 173v24l299 173v-24l-277 -161l277 -160v-25z" />
<glyph unicode="=" horiz-adv-x="340" d="M19 368h299v-23h-299v23zM19 228h299v-23h-299v23z" />
<glyph unicode="&#x3e;" horiz-adv-x="340" d="M20 133l277 160l-277 161v24l299 -173v-24l-299 -173v25z" />
<glyph unicode="?" horiz-adv-x="329" d="M163 702q43 0 71 -12.5t44.5 -33.5t23 -49t6.5 -58q0 -27 -2 -46.5t-5.5 -33.5t-8.5 -25t-10 -20q-15 -27 -25.5 -45t-18.5 -30t-13.5 -19.5t-8.5 -13.5q-9 -16 -16 -41t-7 -48v-74h-24v80q0 8 1.5 19.5t4.5 23.5t7 23.5t9 20.5l69 113q16 27 19 56t3 58q0 65 -28.5 98 t-91.5 33q-21 0 -40.5 -7.5t-35 -22t-25.5 -36.5t-11 -52l-25 5q4 62 41 99.5t97 37.5zM165 0v35h34v-35h-34z" />
<glyph unicode="@" horiz-adv-x="732" d="M458 262q0 -21 7 -36.5t18 -26.5t25 -16.5t28 -5.5q19 0 41 7.5t40.5 29.5t30.5 63t12 107q0 70 -21 125t-58 93.5t-88 58.5t-110 20q-78 0 -135.5 -27t-95 -73.5t-56 -109.5t-18.5 -136q0 -80 19.5 -144t58.5 -110t96.5 -70.5t133.5 -24.5q38 0 84.5 9t83.5 29l9 -21 q-40 -17 -84.5 -28.5t-87.5 -11.5q-79 0 -141.5 23.5t-106 70t-66.5 116t-23 162.5q0 82 21.5 150t62.5 116.5t102 75t140 26.5q74 0 130.5 -24t95 -66.5t58 -101t19.5 -127.5q0 -71 -14 -115.5t-35.5 -69.5t-47 -34.5t-48.5 -9.5q-6 0 -18.5 2t-26.5 8.5t-27.5 19 t-21.5 33.5q-11 -20 -25 -31t-28 -16t-26.5 -6.5t-20.5 -1.5q-27 0 -45.5 8.5t-30 23t-16.5 33.5t-5 40t5.5 43t19 39t34.5 28t53 11h73v52q0 34 -16 56t-63 22q-28 0 -46 -13t-26 -32l-24 10q11 23 35 40.5t63 17.5q22 0 40.5 -5t32.5 -16t22 -30.5t8 -47.5v-181zM358 367 q-38 0 -62 -23.5t-24 -77.5q0 -15 4 -30t13 -26t24 -18t38 -7q33 0 57 21.5t24 57.5v103h-74z" />
<glyph unicode="A" horiz-adv-x="367" d="M289 196h-213l-44 -196h-24l156 696h37l158 -696h-25zM142 493l-61 -274h203l-62 276l-39 178h-2z" />
<glyph unicode="B" horiz-adv-x="408" d="M77 674v-295h141q67 0 91.5 38.5t24.5 110.5q0 70 -32 108t-110 38h-115zM77 357v-332h123q43 0 70.5 14t43.5 38t22.5 56t6.5 68q0 74 -30.5 115t-89.5 41h-146zM283 367q25 -9 41.5 -25t26.5 -38t14 -48.5t4 -55.5q0 -56 -12.5 -94t-35 -61.5t-53 -34t-66.5 -10.5h-150 v696h145q46 0 77 -11.5t50 -33t27.5 -52.5t8.5 -70q0 -27 -3 -51.5t-11.5 -45.5t-23.5 -37.5t-39 -26.5v-1z" />
<glyph unicode="C" horiz-adv-x="382" d="M197 16q23 0 45.5 7t40 22t28.5 39.5t11 59.5l25 -5q0 -41 -13.5 -69t-35 -45t-48 -24.5t-53.5 -7.5q-69 0 -110 36t-41 111v413q0 75 41 112t110 37q28 0 55 -7.5t48 -25t34 -45t13 -66.5l-25 -6q0 34 -10 58t-27.5 39.5t-40 22.5t-47.5 7q-59 0 -92.5 -33.5 t-33.5 -93.5v-413q0 -61 33.5 -92t92.5 -31z" />
<glyph unicode="D" horiz-adv-x="395" d="M328 516q0 33 -5.5 62t-19.5 50.5t-40 33.5t-66 12h-120v-650h121q67 0 98.5 35t31.5 116v341zM195 696q64 0 100 -22.5t50 -73.5q10 -36 10 -100v-151q0 -86 -0.5 -154.5t-10.5 -102.5q-9 -30 -25 -48t-36.5 -27.5t-45 -13t-51.5 -3.5h-135v696h144z" />
<glyph unicode="E" horiz-adv-x="350" d="M52 696h276v-23h-251v-302h223v-23h-223v-324h251v-24h-276v696z" />
<glyph unicode="F" horiz-adv-x="346" d="M53 696h276v-23h-251v-302h223v-23h-223v-348h-25v696z" />
<glyph unicode="G" horiz-adv-x="385" d="M197 -7q-69 0 -110 36t-41 111v413q0 75 41 112t110 37q28 0 55 -7.5t48 -25t34 -45t13 -66.5l-25 -6q0 34 -10 58t-27.5 39.5t-40 22.5t-47.5 7q-59 0 -92.5 -33.5t-33.5 -93.5v-413q0 -61 34 -91.5t93 -30.5q25 0 48 8.5t41 24.5t29 39t11 52v187h-88v25h114v-212 q0 -36 -13 -63.5t-34.5 -46t-49.5 -28.5t-59 -10z" />
<glyph unicode="H" horiz-adv-x="404" d="M328 345h-251v-345h-25v696h25v-327h251v327h26v-696h-26v345z" />
<glyph unicode="I" horiz-adv-x="165" d="M70 696h25v-696h-25v696z" />
<glyph unicode="J" horiz-adv-x="309" d="M239 136q0 -66 -40 -104.5t-117 -38.5q-25 0 -49.5 6t-38.5 15l12 22q17 -11 39 -15t40 -4t40 4t42 17t33.5 37.5t13.5 64.5v556h25v-560z" />
<glyph unicode="K" horiz-adv-x="388" d="M78 243l246 453h29l-149 -273l181 -423h-30l-168 394l-111 -203v-191h-25v696h25v-453h2z" />
<glyph unicode="L" horiz-adv-x="329" d="M53 696h25v-672h241v-24h-266v696z" />
<glyph unicode="M" horiz-adv-x="516" d="M440 624l-170 -464h-27l-165 456h-3v-616h-25v696h26l179 -501h3l183 501h25v-696h-24v624h-2z" />
<glyph unicode="N" horiz-adv-x="422" d="M75 627v-627h-25v696h24l271 -627h3v627h24v-696h-24l-271 627h-2z" />
<glyph unicode="O" horiz-adv-x="398" d="M328 558q0 60 -37.5 90.5t-91.5 30.5q-56 0 -92.5 -33t-36.5 -93v-416q0 -61 36.5 -91t92.5 -30q62 0 95.5 32t33.5 93v417zM199 -7q-32 0 -60 8.5t-49 26.5t-33 45t-12 65v416q0 37 12 65t33 46.5t49 27.5t60 9t60 -8.5t49 -26t33 -44.5t12 -64v-419q0 -38 -12 -65.5 t-33 -45.5t-49 -27t-60 -9z" />
<glyph unicode="P" horiz-adv-x="382" d="M184 696q52 0 86.5 -14.5t54 -40t27.5 -60t8 -75.5q0 -46 -9 -83t-29.5 -63.5t-54.5 -40.5t-84 -14h-106v-304h-25v695h132zM77 674v-347h103q83 0 119.5 42.5t36.5 135.5q0 37 -7.5 68.5t-25.5 53.5t-47.5 34.5t-73.5 12.5h-105z" />
<glyph unicode="Q" horiz-adv-x="396" d="M199 -7q-32 0 -60 8.5t-49 26.5t-33 45t-12 65v416q0 37 12 65t33 46.5t49 27.5t60 9t60 -8.5t49 -26t33 -44.5t12 -64v-419q0 -27 -6.5 -49t-17.5 -39l64 -47l-15 -20l-66 48q-21 -20 -50 -30t-63 -10zM328 558q0 60 -37.5 90.5t-91.5 30.5q-56 0 -92.5 -33t-36.5 -93 v-416q0 -61 36.5 -91t92.5 -30q62 0 94 31l-71 53l15 20l72 -54q19 29 19 75v417z" />
<glyph unicode="R" horiz-adv-x="388" d="M179 696q52 0 87 -12.5t55 -36t28.5 -56.5t8.5 -74q0 -75 -27 -122t-90 -62q12 -37 26.5 -80t29.5 -86.5t30 -86.5t27 -80h-29l-108 328q-10 -1 -20 -1.5t-21 -0.5h-99v-326h-25v696h127zM77 674v-326h96q82 0 121.5 38t39.5 130q0 75 -35.5 116.5t-123.5 41.5h-98z" />
<glyph unicode="S" horiz-adv-x="370" d="M340 178q0 -42 -7.5 -76t-25 -58.5t-47 -37.5t-73.5 -13q-42 0 -70.5 11t-47 30.5t-27 45.5t-9.5 57l27 5q0 -25 7 -47.5t22 -40t39 -27.5t59 -10q41 0 65.5 13t38 35t18 51t4.5 61q0 37 -3.5 62t-16 44.5t-37 35.5t-67.5 36q-51 23 -80.5 43t-45 41t-20 43.5t-4.5 49.5 q0 37 8.5 68.5t27 54t47 35t68.5 12.5q44 0 73 -12.5t46 -32.5t24 -45t7 -50l-26 -6q0 24 -6.5 46t-21 39t-38.5 27t-59 10q-39 0 -63 -13.5t-37.5 -35t-18 -47t-4.5 -49.5q0 -27 6 -48t22 -39t44.5 -35.5t74.5 -38.5q46 -20 71.5 -39t38 -41.5t15 -50t2.5 -63.5z" />
<glyph unicode="T" horiz-adv-x="319" d="M171 0h-25v673h-140v23h304v-23h-139v-673z" />
<glyph unicode="U" horiz-adv-x="380" d="M343 695v-555q0 -38 -12 -65.5t-33 -45.5t-49 -27t-60 -9t-60 8.5t-49 26.5t-33 45t-12 65v557h25v-558q0 -61 36.5 -91t92.5 -30q62 0 95.5 32t33.5 93v554h25z" />
<glyph unicode="V" horiz-adv-x="370" d="M333 696h25l-158 -696h-37l-156 696h24l110 -493l39 -180h2l39 178z" />
<glyph unicode="W" horiz-adv-x="582" d="M290 632l-35 -187l-83 -445h-39l-125 696h24l78 -442l41 -235h2l43 233l83 444h25l84 -451l42 -226h2l39 225l80 452h24l-125 -696h-39l-84 446l-35 186h-2z" />
<glyph unicode="X" horiz-adv-x="332" d="M4 0l147 348l-146 346h29l132 -317l130 317h29l-147 -346l148 -348h-29l-131 318l-133 -318h-29z" />
<glyph unicode="Y" horiz-adv-x="337" d="M167 326l131 370h27l-146 -403v-293h-25v293l-146 403h25l132 -370h2z" />
<glyph unicode="Z" horiz-adv-x="296" d="M267 24v-24h-259v23l249 650h-225v23h250v-22l-249 -650h234z" />
<glyph unicode="[" horiz-adv-x="191" d="M62 696h108v-24h-81v-760h81v-23h-108v807z" />
<glyph unicode="\" horiz-adv-x="219" d="M7 725h23l186 -767h-23z" />
<glyph unicode="]" horiz-adv-x="191" d="M170 -111h-108v23h81v760h-81v24h108v-807z" />
<glyph unicode="^" horiz-adv-x="340" d="M6 395l153 299h24l153 -299h-24l-142 278l-139 -278h-25z" />
<glyph unicode="_" horiz-adv-x="500" d="M0 -90h500v-24h-500v24z" />
<glyph unicode="`" horiz-adv-x="334" d="M236 556l-84 136l33 13l66 -143z" />
<glyph unicode="a" horiz-adv-x="334" d="M166 259q-51 0 -84 -30.5t-33 -102.5q0 -21 5.5 -41t18 -35t33 -24.5t50.5 -9.5q46 0 78.5 25t32.5 75v143h-101zM39 423q15 32 46 52t82 20q61 0 93.5 -27.5t32.5 -99.5v-368h-26v44h-2q-13 -17 -28 -27t-30.5 -15t-31 -6.5t-28.5 -1.5q-34 0 -57.5 11t-38 29.5t-21 43 t-6.5 51.5q0 28 6.5 55.5t22.5 49.5t42.5 35.5t66.5 13.5h105v83q0 23 -4 42.5t-15 33.5t-31 22t-52 8q-39 0 -65.5 -17t-36.5 -42z" />
<glyph unicode="b" horiz-adv-x="337" d="M179 16q29 0 56 16t38 57q5 16 6 54.5t1 85.5q0 23 -0.5 50t-1 52t-2.5 45t-5 31q-10 33 -33.5 49t-54.5 16q-27 0 -49 -11.5t-37.5 -30t-23.5 -41.5t-8 -45v-209q0 -53 32 -86t82 -33zM181 -7q-41 0 -69 15.5t-45 41.5h-2v-50h-25v726h25v-301h2q17 32 48.5 51t67.5 19 q51 -2 76 -21.5t36 -48.5q4 -15 6.5 -36t4 -45.5t1.5 -50v-49.5v-21q0 -26 -0.5 -55t-3.5 -61q-3 -33 -15.5 -54.5t-29.5 -35t-37.5 -19t-39.5 -5.5z" />
<glyph unicode="c" horiz-adv-x="327" d="M172 495q57 0 91.5 -30.5t34.5 -90.5l-26 -5q0 48 -26 75t-77 27q-28 0 -54.5 -12t-40.5 -46q-8 -19 -9.5 -67t-2.5 -109v-18q0 -18 0.5 -39t1.5 -40.5t3 -36t5 -25.5q10 -29 33.5 -45.5t61.5 -16.5q48 0 75.5 24.5t29.5 77.5l26 -5q-2 -61 -37 -90.5t-92 -29.5 q-30 0 -51.5 7t-36.5 19t-24 27t-13 31q-3 12 -5 31.5t-3 41.5t-1 45v43q0 27 0.5 54.5t2 52t4 44t6.5 31.5q12 33 42 54t82 21z" />
<glyph unicode="d" horiz-adv-x="337" d="M161 16q50 0 82 33t32 86v205q0 24 -7 47.5t-21 42t-34.5 30t-47.5 11.5q-33 0 -59 -18.5t-36 -51.5q-3 -11 -4.5 -30t-2.5 -43t-1 -50v-49q0 -47 1 -85.5t6 -54.5q11 -41 34.5 -57t57.5 -16zM159 -7q-21 0 -41.5 5.5t-37 19t-28 35t-14.5 54.5q-3 32 -3 61v55v21 q0 57 0.5 102t11.5 74q10 29 37.5 52t81.5 23q26 0 44 -7t30.5 -17t20 -21t12.5 -19h2v295h25v-726h-25v50h-2q-17 -26 -45 -41.5t-69 -15.5z" />
<glyph unicode="e" horiz-adv-x="334" d="M171 495q59 0 93 -31.5t34 -91.5v-127h-237v-26q0 -18 0.5 -39t1.5 -40.5t3 -36t5 -25.5q8 -25 30.5 -43.5t63.5 -18.5q26 0 45.5 8t32 21.5t19.5 31t9 37.5l24 -5q-5 -56 -41 -86t-86 -30q-30 0 -51.5 7t-36.5 19t-24 27t-13 31q-3 12 -5 31.5t-3 41.5t-1 45v43 q0 27 0.5 55t2 53t4.5 45t7 32q12 33 41.5 52.5t81.5 19.5zM73 414q-8 -20 -9.5 -57.5t-2.5 -88.5h211v103q0 43 -24 71.5t-78 28.5q-28 0 -55.5 -11.5t-41.5 -45.5z" />
<glyph unicode="f" horiz-adv-x="173" d="M94 0h-25v465h-57v22h57v129q0 61 29.5 85.5t73.5 24.5h14v-22h-14q-44 0 -61 -23.5t-17 -59.5v-134h86v-22h-86v-465z" />
<glyph unicode="g" horiz-adv-x="349" d="M163 495q41 0 69 -15.5t45 -41.5h2v50h25v-558q0 -34 -10.5 -59t-28.5 -41.5t-42 -24.5t-51 -8q-52 0 -87.5 29.5t-37.5 90.5l26 5q0 -48 26.5 -75t74.5 -27t76.5 29.5t28.5 78.5v135h-2q-17 -32 -48.5 -51t-67.5 -19q-51 2 -76 21.5t-36 48.5q-5 15 -7 36t-3.5 45.5 t-1.5 50v49.5v21q0 26 0.5 55t3.5 61q3 33 15.5 54.5t29.5 35t37.5 19t39.5 5.5zM165 472q-29 0 -56 -16t-38 -57q-5 -16 -6 -54.5t-1 -85.5q0 -23 0.5 -50t1 -52t2.5 -45.5t5 -30.5q10 -33 33.5 -49t54.5 -16q27 0 49 11.5t37.5 30t23.5 41.5t8 45v209q0 53 -32 86t-82 33z " />
<glyph unicode="h" horiz-adv-x="353" d="M71 430q17 31 47.5 48t65.5 17q37 0 61.5 -11t38 -29t19 -42.5t5.5 -51.5v-361h-26v351q0 24 -4 46t-15 38t-30.5 25.5t-49.5 9.5q-28 0 -49 -11.5t-35.5 -29.5t-21.5 -41t-7 -46v-342h-25v727h25v-297h1z" />
<glyph unicode="i" horiz-adv-x="147" d="M60 487h25v-487h-25v487zM59 636h28v-32h-28v32z" />
<glyph unicode="j" horiz-adv-x="135" d="M58 487h25v-595q0 -55 -24.5 -75.5t-68.5 -20.5h-4v22h4q43 0 55.5 21t12.5 62v586zM58 636h28v-32h-28v32z" />
<glyph unicode="k" horiz-adv-x="332" d="M67 173l202 313h29l-114 -175l143 -311h-29l-130 286l-101 -155v-131h-25v727h25v-554z" />
<glyph unicode="l" horiz-adv-x="148" d="M73 108q0 -41 14.5 -67t55.5 -26h12v-22h-14q-44 0 -68.5 23.5t-24.5 82.5v627h25v-618z" />
<glyph unicode="m" horiz-adv-x="572" d="M293 418q17 39 49 58t66 19q36 0 59 -11t36.5 -29t19 -42.5t5.5 -51.5v-361h-25v351q0 56 -21 87.5t-75 31.5q-28 0 -48 -11.5t-33.5 -29.5t-20 -41t-6.5 -46v-342h-25v351q0 56 -21 87.5t-75 31.5q-28 0 -48 -11.5t-33.5 -29.5t-20 -41t-6.5 -46v-342h-25v487h25v-57h2 q17 31 44.5 48t62.5 17q52 0 78 -21.5t35 -55.5h1z" />
<glyph unicode="n" horiz-adv-x="353" d="M72 430q17 31 47 48t65 17q37 0 61.5 -11t38 -29t19 -42.5t5.5 -51.5v-361h-26v351q0 24 -4 46t-15 38t-30.5 25.5t-49.5 9.5q-28 0 -49 -11.5t-35.5 -29.5t-21.5 -41t-7 -46v-342h-25v487h25v-57h2z" />
<glyph unicode="o" horiz-adv-x="343" d="M172 495q55 0 82 -21t39 -51q4 -15 6.5 -36t4 -45t1.5 -49v-49v-21q0 -26 -0.5 -54t-3.5 -60q-3 -33 -15.5 -55t-30.5 -35.5t-39.5 -19.5t-43.5 -6q-60 0 -89 22.5t-40 61.5q-3 12 -4.5 31t-2.5 41t-1 45.5v43.5q0 27 0.5 55t1.5 53t3.5 45t6.5 32q12 33 42.5 52.5 t82.5 19.5zM171 471q-14 0 -28.5 -2.5t-27.5 -8.5t-24 -17t-18 -28q-9 -23 -10 -70t-2 -108v-18q0 -56 2 -89.5t8 -52.5q10 -29 34 -45t66 -16q34 0 62 17t39 55q5 16 6.5 55t1.5 86q0 23 -0.5 50t-1.5 52t-3 45t-5 31q-10 33 -37 48.5t-62 15.5z" />
<glyph unicode="p" horiz-adv-x="342" d="M178 470q-50 0 -82 -33t-32 -86v-205q0 -24 7 -47.5t21 -42t34.5 -30t47.5 -11.5q33 0 59 18.5t36 51.5q3 10 4.5 29.5t2.5 43.5t1 50v49q0 47 -1 85.5t-6 54.5q-11 41 -34.5 57t-57.5 16zM180 493q21 0 41.5 -5.5t37 -19t28 -35t14.5 -54.5q3 -32 3 -61v-55v-21 q0 -57 -0.5 -102t-11.5 -74q-5 -15 -14.5 -28.5t-23.5 -24t-34 -16.5t-47 -6q-26 0 -44 7t-30.5 17t-20 21t-12.5 19h-2v-251h-25v682h25v-50h2q17 26 45 41.5t69 15.5z" />
<glyph unicode="q" horiz-adv-x="349" d="M165 472q-29 0 -56 -16t-38 -57q-5 -16 -6 -54.5t-1 -85.5q0 -23 0.5 -50t1 -52t2.5 -45.5t5 -30.5q10 -33 33.5 -49t54.5 -16q27 0 49 11.5t37.5 30t23.5 41.5t8 45v209q0 53 -32 86t-82 33zM163 495q41 0 69 -15.5t45 -41.5h2v50h25v-685h-25v260h-2q-17 -32 -48.5 -51 t-67.5 -19q-51 2 -76 21.5t-36 48.5q-5 15 -7 36t-3.5 45.5t-1.5 50v49.5v21q0 26 0.5 55t3.5 61q3 33 15.5 54.5t29.5 35t37.5 19t39.5 5.5z" />
<glyph unicode="r" horiz-adv-x="223" d="M220 466q-6 2 -12.5 2h-11.5q-54 0 -83.5 -41t-29.5 -109v-318h-25v487h25v-72h3q14 39 42 59.5t66 20.5h13t13 -2v-27z" />
<glyph unicode="s" horiz-adv-x="314" d="M154 -7q-60 0 -95 29.5t-37 90.5l26 5q0 -48 28.5 -75.5t78.5 -26.5q58 0 81 30t23 77q0 24 -3.5 41.5t-15 31t-31.5 25.5t-53 24q-40 15 -64.5 30t-38 30.5t-18.5 32.5t-5 36q0 53 31 87t99 34q57 0 93 -30.5t36 -90.5l-26 -5q0 48 -28.5 75t-76.5 27q-30 0 -49 -8.5 t-30.5 -22t-16 -31t-4.5 -35.5t4.5 -32t17 -27t35.5 -25t59 -25q38 -14 60.5 -29t34 -32t14.5 -36.5t3 -43.5q0 -28 -7 -52t-22.5 -41.5t-40.5 -27.5t-62 -10z" />
<glyph unicode="t" horiz-adv-x="213" d="M22 487h58v140h25v-140h79v-22h-79v-359q0 -36 17 -60t61 -24h9v-22h-9q-22 0 -40.5 6t-32.5 19t-22 34t-8 52v354h-58v22z" />
<glyph unicode="u" horiz-adv-x="353" d="M282 57q-17 -31 -47 -48t-65 -17q-38 0 -62 11t-37.5 29t-19 42.5t-5.5 51.5v361h26v-351q0 -24 4 -46t15 -38t30.5 -25.5t49.5 -9.5q28 0 49 11.5t35 29.5t21.5 41t7.5 46v342h25v-487h-25v57h-2z" />
<glyph unicode="v" horiz-adv-x="296" d="M134 1l-129 486h26l116 -438h2l113 438h27l-129 -486h-26z" />
<glyph unicode="w" horiz-adv-x="512" d="M258 436l-103 -435h-27l-117 486h26l104 -439h2l103 439h27l103 -439h2l104 439h26l-117 -486h-27l-104 435h-2z" />
<glyph unicode="x" horiz-adv-x="277" d="M138 232l-104 -232h-28l113 250l-105 236h28l96 -219l99 219h28l-109 -236l116 -250h-29z" />
<glyph unicode="y" horiz-adv-x="304" d="M151 46l122 441h26l-166 -595q-10 -39 -34.5 -66t-68.5 -27h-7v23h7q33 0 52.5 23.5t29.5 63.5l24 96l-129 482h27l115 -441h2z" />
<glyph unicode="z" horiz-adv-x="269" d="M10 22l221 442h-198v22h226v-21l-221 -443h214v-22h-242v22z" />
<glyph unicode="{" horiz-adv-x="204" d="M98 128q0 35 -1.5 62t-7.5 46t-18.5 31.5t-34.5 19.5v13q24 7 36.5 24.5t18.5 40t7 48t1 48.5v135q0 45 18.5 72.5t54.5 27.5h16v-16h-11q-20 0 -32 -10t-18 -24.5t-7.5 -31.5t-1.5 -32v-139q0 -60 -15.5 -99.5t-41.5 -48.5v-1q31 -10 44 -47t13 -93v-152q0 -14 1.5 -31 t7.5 -31.5t18 -24.5t32 -10h11v-17h-16q-36 0 -55 27.5t-19 72.5v140v0z" />
<glyph unicode="|" horiz-adv-x="159" d="M73 716h19v-878h-19v878z" />
<glyph unicode="}" horiz-adv-x="204" d="M126 -12q0 -45 -19 -72.5t-55 -27.5h-16v17h11q20 0 32 10t18 24.5t7.5 31.5t1.5 31v152q0 56 13 93t44 47v1q-26 9 -41.5 48.5t-15.5 99.5v139q0 15 -1.5 32t-7.5 31.5t-18 24.5t-32 10h-11v16h16q36 0 54.5 -27.5t18.5 -72.5v-135q0 -23 1 -48.5t7 -48t18.5 -40 t36.5 -24.5v-13q-22 -7 -34.5 -19.5t-18.5 -31.5t-7.5 -46t-1.5 -62v-140z" />
<glyph unicode="~" horiz-adv-x="340" d="M250 205q-19 0 -38.5 7t-39 15.5t-39.5 15.5t-40 7q-17 0 -32.5 -6.5t-29.5 -23.5l-13 14q27 39 76 39q22 0 43 -7t40.5 -16t37.5 -16t34 -7q17 0 33 5.5t33 28.5l15 -12q-27 -44 -80 -44z" />
<glyph unicode="&#xa1;" horiz-adv-x="185" d="M103 334q1 -64 1.5 -132.5t0.5 -138.5t0.5 -139t1.5 -133h-29q1 64 1.5 133t0.5 139t0.5 138.5t1.5 132.5h21zM110 487v-35h-34v35h34z" />
<glyph unicode="&#xa2;" horiz-adv-x="340" d="M176 495q54 -2 87.5 -32t33.5 -89l-26 -5q0 46 -24 73t-71 29v-455q43 2 68.5 26.5t26.5 75.5l26 -5q-2 -59 -35 -88.5t-86 -31.5v-107h-19v107q-54 3 -80 28t-34 56q-3 12 -5 31.5t-3 41.5t-1 45v43q0 27 0.5 54.5t2 52t4 44t6.5 31.5q11 31 37.5 51t72.5 23v115h19 v-114zM71 78q9 -28 30.5 -44t55.5 -18v455q-26 -2 -48.5 -15t-35.5 -43q-6 -16 -9 -65.5t-3 -110.5v-18q0 -18 0.5 -39t1.5 -40.5t3 -36t5 -25.5z" />
<glyph unicode="&#xa3;" horiz-adv-x="340" d="M182 703q28 0 53.5 -7.5t45 -25t31 -45t11.5 -66.5l-25 -6q0 68 -33 97.5t-83 29.5q-54 0 -83 -31t-29 -82q0 -27 5 -52t12 -50t14.5 -51.5t12.5 -56.5h113v-23h-110q3 -23 3 -46q0 -83 -16 -144t-45 -120h253v-24h-282v24q32 58 48.5 127t16.5 141q0 10 -1 20.5t-3 21.5 h-65v23h62q-6 28 -13.5 57.5t-14.5 57t-12 51.5t-5 41q0 63 36.5 101t102.5 38z" />
<glyph unicode="&#xa4;" horiz-adv-x="493" d="M86 324q0 30 10 57t28 48l-52 52l17 17l52 -52q21 19 48 29.5t58 10.5q30 0 57 -10.5t48 -28.5l51 51l17 -18l-50 -50q18 -22 28.5 -49t10.5 -57t-10.5 -57t-28.5 -48l51 -52l-18 -18l-51 52q-21 -18 -48 -28t-57 -10q-61 0 -105 38l-53 -53l-18 18l53 53q-38 44 -38 105 zM112 324q0 -28 11 -53t29.5 -43.5t43.5 -29.5t53 -11t53 11t43.5 29.5t29.5 43.5t11 53t-11 53t-29.5 43.5t-43.5 29.5t-53 11t-53 -11t-43.5 -29.5t-29.5 -43.5t-11 -53z" />
<glyph unicode="&#xa5;" horiz-adv-x="340" d="M153 306l-131 390h25l122 -369h2l121 369h27l-132 -390h120v-21h-124v-79h124v-21h-124v-185h-25v185h-115v21h115v79h-115v21h110z" />
<glyph unicode="&#xa6;" horiz-adv-x="159" d="M73 308v408h19v-408h-19zM92 245v-407h-19v407h19z" />
<glyph unicode="&#xa7;" horiz-adv-x="405" d="M357 289q0 -34 -23.5 -66t-61.5 -58q33 -31 46 -58t13 -53q0 -31 -11.5 -55.5t-32 -41.5t-48.5 -26t-61 -9q-28 0 -58.5 9.5t-58.5 27.5l13 19q24 -16 49 -25t54 -9q60 0 94.5 30t34.5 75q0 41 -30.5 77t-106.5 80q-58 34 -87.5 67.5t-29.5 72.5q0 45 24 74.5t60 49.5 q-35 26 -47.5 51.5t-12.5 53.5q0 54 34.5 90.5t96.5 36.5q35 0 62 -8t57 -30l-19 -20q-23 18 -45 26.5t-55 8.5q-26 0 -45 -9t-32.5 -23.5t-20 -33t-6.5 -37.5q0 -22 8.5 -38.5t24 -30.5t36.5 -26.5t46 -27.5q29 -17 54.5 -34.5t44 -37t29.5 -42.5t11 -50zM333 287 q0 49 -44.5 87.5t-125.5 81.5q-16 -7 -31.5 -17t-28 -23.5t-20 -30.5t-7.5 -38q0 -23 11.5 -42t30 -35t40.5 -29.5t43 -25.5q14 -8 28 -16.5t25 -16.5q15 8 29 20t25 26t18 29.5t7 29.5z" />
<glyph unicode="&#xa8;" horiz-adv-x="333" d="M79 615h28v-32h-28v32zM221 615h28v-32h-28v32z" />
<glyph unicode="&#xa9;" horiz-adv-x="703" d="M467 236q0 -24 -8.5 -42.5t-23 -31.5t-33.5 -20t-40 -7t-40 6t-34 19t-23.5 32.5t-8.5 45.5v192q0 52 31 79t75 27q42 0 73.5 -25.5t31.5 -77.5l-24 -4q0 40 -23 61.5t-59 21.5t-58 -22t-22 -56v-198q0 -34 22.5 -55.5t57.5 -21.5q36 0 58 21.5t22 58.5zM363 -8 q-74 0 -130 26.5t-94 73.5t-57.5 110.5t-19.5 138.5t19.5 139t57.5 111.5t94 74t130 26.5q73 0 129 -26.5t94 -74t58 -111.5t20 -139t-20 -138.5t-58 -110.5t-94 -73.5t-129 -26.5zM363 669q-69 0 -120.5 -26t-86 -70.5t-52 -104t-17.5 -127.5q0 -72 19 -131.5t54.5 -103 t86.5 -67.5t116 -24q66 0 117.5 24.5t86.5 68t53.5 103t18.5 130.5t-18.5 131t-53.5 104t-86.5 68.5t-117.5 24.5z" />
<glyph unicode="&#xaa;" horiz-adv-x="230" d="M115 445q-34 0 -55 -17.5t-21 -62.5q0 -26 15.5 -46t53.5 -20q30 0 50.5 15t20.5 44v87h-64zM20 552q13 24 35.5 39.5t60.5 15.5q43 0 66.5 -19t23.5 -67v-241h-27v23q-17 -20 -38.5 -23.5t-39.5 -3.5q-48 0 -68 27.5t-20 63.5q0 19 5 37.5t16.5 33t30 23.5t46.5 9h68v49 q0 28 -12.5 46t-53.5 18q-24 0 -41.5 -12.5t-24.5 -29.5z" />
<glyph unicode="&#xab;" horiz-adv-x="291" d="M141 46l-107 186l107 186h27l-106 -186l106 -186h-27zM245 46l-107 186l107 186h27l-106 -186l106 -186h-27z" />
<glyph unicode="&#xac;" horiz-adv-x="340" d="M318 125h-23v156h-276v24h299v-180z" />
<glyph unicode="&#xad;" horiz-adv-x="309" d="M49 300h222v-28h-222v28z" />
<glyph unicode="&#xae;" horiz-adv-x="486" d="M292 363l-40 112h-41v-112h-24v257h57q34 0 53.5 -18.5t19.5 -56.5q0 -20 -9 -39t-32 -30q11 -27 22 -56.5t21 -56.5h-27zM292 545q0 24 -12 38t-38 14h-31v-103h34q27 0 37 14t10 37zM248 276q-45 0 -80.5 16.5t-59.5 45.5t-37 68.5t-13 85.5q0 47 12 87t36 69 t59.5 45.5t82.5 16.5q45 0 79.5 -16.5t58 -45.5t36 -69t12.5 -87q0 -46 -12.5 -85.5t-36.5 -68.5t-58.5 -45.5t-78.5 -16.5zM248 689q-41 0 -72.5 -15t-52.5 -41.5t-31.5 -62t-10.5 -76.5q0 -42 11.5 -78t33 -62t52.5 -40.5t70 -14.5q40 0 70.5 15.5t51 42t30.5 62t10 75.5 q0 41 -11 76.5t-32 62t-51 41.5t-68 15z" />
<glyph unicode="&#xaf;" horiz-adv-x="334" d="M77 614h191v-24h-191v24z" />
<glyph unicode="&#xb0;" horiz-adv-x="281" d="M146 670q-27 0 -46 -19t-19 -47q0 -29 19 -47.5t46 -18.5q28 0 46.5 18.5t18.5 47.5q0 28 -18.5 47t-46.5 19zM146 692q37 0 62 -25.5t25 -62.5q0 -38 -25 -63t-62 -25q-36 0 -61.5 25t-25.5 63q0 37 25.5 62.5t61.5 25.5z" />
<glyph unicode="&#xb1;" horiz-adv-x="340" d="M180 125h-23v156h-138v24h138v153h23v-153h138v-24h-138v-156zM19 61v24h299v-24h-299z" />
<glyph unicode="&#xb2;" horiz-adv-x="221" d="M56 394h139v-24h-169v23l127 232q11 20 15.5 37.5t4.5 38.5q0 25 -13.5 45t-48.5 20q-22 0 -40 -15t-18 -46l-27 4q0 36 25 58t61 22q46 0 67.5 -24t21.5 -64q0 -29 -7 -49t-19 -42z" />
<glyph unicode="&#xb3;" horiz-adv-x="221" d="M112 789q24 0 39.5 -6.5t25 -18.5t13.5 -28t4 -35v-31q0 -11 -0.5 -22.5t-3.5 -23t-9.5 -21t-18.5 -15.5q20 -11 26 -30t6 -41v-65q0 -14 -4 -29.5t-13.5 -28t-26.5 -20.5t-43 -8q-15 0 -30 4.5t-26 14.5t-18 26t-7 39l27 3q0 -28 12.5 -46t43.5 -18q33 0 45.5 20 t12.5 43v64q0 32 -15 45.5t-35 13.5h-22v26h23q20 0 34.5 12.5t14.5 43.5v49q0 24 -12.5 42t-44.5 18q-29 0 -43 -18t-14 -43l-26 5q2 34 22.5 56.5t62.5 22.5z" />
<glyph unicode="&#xb4;" horiz-adv-x="334" d="M151 562l66 143l33 -13l-84 -136z" />
<glyph unicode="&#xb6;" horiz-adv-x="407" d="M226 703v-784h-32v458q-72 0 -116.5 45.5t-44.5 135.5q0 36 7.5 68t26 56t49.5 38t78 14h183v-31h-52v-784h-32v784h-67z" />
<glyph unicode="&#xb7;" horiz-adv-x="107" d="M36 239v40h38v-40h-38z" />
<glyph unicode="&#xb8;" horiz-adv-x="431" d="M195 3l-18 -70q24 -2 39.5 -9t24.5 -17.5t13 -22t4 -21.5q0 -26 -18 -48t-56 -22q-19 0 -35.5 3t-36.5 13l9 19q16 -8 31 -10.5t27 -2.5q24 0 39 12t15 35q0 20 -16.5 34.5t-49.5 16.5l-16 11l22 81z" />
<glyph unicode="&#xb9;" horiz-adv-x="180" d="M110 755l-71 -44v30l74 44h20v-415h-23v385z" />
<glyph unicode="&#xba;" horiz-adv-x="237" d="M119 607q38 0 57.5 -14t27.5 -34q8 -21 9 -54t1 -64v-15q0 -29 -3 -72q-2 -22 -10.5 -37t-21.5 -24.5t-28.5 -13.5t-31.5 -4q-43 0 -63.5 15.5t-28.5 41.5q-2 8 -3.5 20.5t-2 27t-0.5 29.5v28q0 34 1 67t8 51q8 22 31 37t58 15zM118 582q-19 0 -36 -6.5t-26 -26.5 q-6 -15 -7.5 -43t-1.5 -66v-10q0 -35 1.5 -59.5t5.5 -35.5q6 -17 20.5 -26.5t43.5 -9.5q21 0 39 9.5t25 31.5q4 11 5 37t1 54q0 15 -0.5 32t-1.5 32.5t-2.5 28.5t-3.5 20q-6 20 -22.5 29t-39.5 9z" />
<glyph unicode="&#xbb;" horiz-adv-x="291" d="M138 46l106 186l-106 186h27l107 -186l-107 -186h-27zM34 46l106 186l-106 186h27l107 -186l-107 -186h-27z" />
<glyph unicode="&#xbc;" horiz-adv-x="530" d="M116 665l-71 -44v30l74 44h20v-415h-23v385zM112 -17h-25l314 731h25zM446 0h-23v73h-133v21l94 321h26l-94 -317h107v113h23v-113h39v-25h-39v-73z" />
<glyph unicode="&#xbd;" horiz-adv-x="530" d="M123 665l-71 -44v30l74 44h20v-415h-23v385zM98 -17h-25l314 731h25zM332 24h139v-24h-169v23l127 232q11 20 15.5 37.5t4.5 38.5q0 25 -13.5 45t-48.5 20q-22 0 -40 -15t-18 -46l-27 4q0 36 25 58t61 22q46 0 67.5 -24t21.5 -64q0 -29 -7 -49t-19 -42z" />
<glyph unicode="&#xbe;" horiz-adv-x="530" d="M115 699q24 0 39.5 -6.5t25 -18.5t13.5 -28t4 -35v-31q0 -11 -0.5 -22.5t-3.5 -23t-9.5 -21t-18.5 -15.5q20 -11 26 -30t6 -41v-65q0 -14 -4 -29.5t-13.5 -28t-26.5 -20.5t-43 -8q-15 0 -30 4.5t-26 14.5t-18 26t-7 39l27 3q0 -28 12.5 -46t43.5 -18q33 0 45.5 20 t12.5 43v64q0 32 -15 45.5t-35 13.5h-22v26h23q20 0 34.5 12.5t14.5 43.5v49q0 24 -12.5 42t-44.5 18q-29 0 -43 -18t-14 -43l-26 5q2 34 22.5 56.5t62.5 22.5zM134 -17h-25l314 731h25zM461 0h-23v73h-133v21l94 321h26l-94 -317h107v113h23v-113h39v-25h-39v-73z" />
<glyph unicode="&#xbf;" horiz-adv-x="329" d="M191 -217q-43 0 -71 12.5t-44.5 33.5t-23 49t-6.5 58q0 27 2 46.5t5.5 33.5t8.5 25t10 20q15 27 25.5 45t18.5 30t13.5 19.5t8.5 13.5q9 16 16 41t7 48v74h24v-80q0 -8 -1.5 -19.5t-4.5 -23.5t-7 -23.5t-9 -20.5l-69 -113q-16 -27 -19 -56t-3 -58q0 -65 28.5 -98 t91.5 -33q21 0 40.5 7.5t35 22t25 36.5t11.5 52l25 -5q-4 -62 -41 -99.5t-97 -37.5zM189 485v-35h-34v35h34z" />
<glyph unicode="&#xc0;" horiz-adv-x="367" d="M289 196h-213l-44 -196h-24l156 696h37l158 -696h-25zM142 493l-61 -274h203l-62 276l-39 178h-2zM178 733l-134 88l25 26l120 -102z" />
<glyph unicode="&#xc1;" horiz-adv-x="367" d="M289 196h-213l-44 -196h-24l156 696h37l158 -696h-25zM142 493l-61 -274h203l-62 276l-39 178h-2zM169 745l120 102l25 -26l-134 -88z" />
<glyph unicode="&#xc2;" horiz-adv-x="367" d="M289 196h-213l-44 -196h-24l156 696h37l158 -696h-25zM142 493l-61 -274h203l-62 276l-39 178h-2zM183 816l-107 -78l-11 10l107 94h24l104 -92l-12 -11z" />
<glyph unicode="&#xc3;" horiz-adv-x="367" d="M289 196h-213l-44 -196h-24l156 696h37l158 -696h-25zM142 493l-61 -274h203l-62 276l-39 178h-2zM236 741q-15 0 -29.5 6t-29 13t-28 13t-27.5 6q-12 0 -24 -9.5t-22 -24.5l-16 10q25 47 63 47q16 0 30 -6t27.5 -12.5t28 -12.5t30.5 -6q32 0 50 38l16 -7 q-9 -30 -29 -42.5t-40 -12.5z" />
<glyph unicode="&#xc4;" horiz-adv-x="367" d="M289 196h-213l-44 -196h-24l156 696h37l158 -696h-25zM142 493l-61 -274h203l-62 276l-39 178h-2zM97 773h28v-32h-28v32zM239 773h28v-32h-28v32z" />
<glyph unicode="&#xc5;" horiz-adv-x="367" d="M289 196h-213l-44 -196h-24l156 696h37l158 -696h-25zM142 493l-61 -274h203l-62 276l-39 178h-2zM181 718q-30 0 -52 22.5t-22 54.5q0 34 22 56t52 22q32 0 54 -22t22 -56q0 -32 -22 -54.5t-54 -22.5zM181 854q-22 0 -38.5 -17t-16.5 -42q0 -23 16.5 -40.5t38.5 -17.5 q23 0 40 17.5t17 40.5q0 25 -17 42t-40 17z" />
<glyph unicode="&#xc6;" horiz-adv-x="622" d="M332 196h-213l-88 -196h-27l310 696h294v-23h-251v-302h223v-23h-223v-324h251v-24h-276v196zM130 219h202v452h-2z" />
<glyph unicode="&#xc7;" horiz-adv-x="382" d="M197 16q23 0 45.5 7t40 22t28.5 39.5t11 59.5l25 -5q0 -38 -11.5 -64.5t-30.5 -44t-43 -26t-49 -10.5l-15 -61q24 -2 39.5 -9t24.5 -17.5t13 -22t4 -21.5q0 -26 -18 -48t-56 -22q-19 0 -35.5 3t-36.5 13l9 19q16 -8 31 -10.5t27 -2.5q24 0 39 12t15 35q0 20 -16.5 34.5 t-49.5 16.5l-16 11l18 69q-66 2 -105 37.5t-39 109.5v413q0 75 41 112t110 37q28 0 55 -7.5t48 -25t34 -45t13 -66.5l-25 -6q0 34 -10 58t-27.5 39.5t-40 22.5t-47.5 7q-59 0 -92.5 -33.5t-33.5 -93.5v-413q0 -61 33.5 -92t92.5 -31z" />
<glyph unicode="&#xc8;" horiz-adv-x="350" d="M52 696h276v-23h-251v-302h223v-23h-223v-324h251v-24h-276v696zM198 733l-134 88l25 26l120 -102z" />
<glyph unicode="&#xc9;" horiz-adv-x="350" d="M52 696h276v-23h-251v-302h223v-23h-223v-324h251v-24h-276v696zM133 745l120 102l25 -26l-134 -88z" />
<glyph unicode="&#xca;" horiz-adv-x="350" d="M52 696h276v-23h-251v-302h223v-23h-223v-324h251v-24h-276v696zM183 816l-107 -78l-11 10l107 94h24l104 -92l-12 -11z" />
<glyph unicode="&#xcb;" horiz-adv-x="350" d="M52 696h276v-23h-251v-302h223v-23h-223v-324h251v-24h-276v696zM90 773h28v-32h-28v32zM232 773h28v-32h-28v32z" />
<glyph unicode="&#xcc;" horiz-adv-x="165" d="M70 696h25v-696h-25v696zM80 733l-134 88l25 26l120 -102z" />
<glyph unicode="&#xcd;" horiz-adv-x="165" d="M70 696h25v-696h-25v696zM72 745l120 102l25 -26l-134 -88z" />
<glyph unicode="&#xce;" horiz-adv-x="165" d="M70 696h25v-696h-25v696zM84 816l-107 -78l-11 10l107 94h24l104 -92l-12 -11z" />
<glyph unicode="&#xcf;" horiz-adv-x="165" d="M70 696h25v-696h-25v696zM-3 773h28v-32h-28v32zM139 773h28v-32h-28v32z" />
<glyph unicode="&#xd0;" horiz-adv-x="395" d="M4 388h47v308h144q64 0 100 -22.5t50 -73.5q10 -36 10 -100v-151q0 -86 -0.5 -154.5t-10.5 -102.5q-9 -30 -25 -48t-36.5 -27.5t-45 -13t-51.5 -3.5h-135v366h-47v22zM328 516q0 33 -5.5 62t-19.5 50.5t-40 33.5t-66 12h-120v-286h130v-22h-130v-342h121q67 0 98.5 35 t31.5 116v341z" />
<glyph unicode="&#xd1;" horiz-adv-x="422" d="M75 627v-627h-25v696h24l271 -627h3v627h24v-696h-24l-271 627h-2zM269 741q-15 0 -29.5 6t-29 13t-28 13t-27.5 6q-12 0 -24 -9.5t-22 -24.5l-16 10q25 47 63 47q16 0 30 -6t27.5 -12.5t28 -12.5t30.5 -6q32 0 50 38l16 -7q-9 -30 -29 -42.5t-40 -12.5z" />
<glyph unicode="&#xd2;" horiz-adv-x="398" d="M328 558q0 60 -37.5 90.5t-91.5 30.5q-56 0 -92.5 -33t-36.5 -93v-416q0 -61 36.5 -91t92.5 -30q62 0 95.5 32t33.5 93v417zM199 -7q-32 0 -60 8.5t-49 26.5t-33 45t-12 65v416q0 37 12 65t33 46.5t49 27.5t60 9t60 -8.5t49 -26t33 -44.5t12 -64v-419q0 -38 -12 -65.5 t-33 -45.5t-49 -27t-60 -9zM204 733l-134 88l25 26l120 -102z" />
<glyph unicode="&#xd3;" horiz-adv-x="398" d="M328 558q0 60 -37.5 90.5t-91.5 30.5q-56 0 -92.5 -33t-36.5 -93v-416q0 -61 36.5 -91t92.5 -30q62 0 95.5 32t33.5 93v417zM199 -7q-32 0 -60 8.5t-49 26.5t-33 45t-12 65v416q0 37 12 65t33 46.5t49 27.5t60 9t60 -8.5t49 -26t33 -44.5t12 -64v-419q0 -38 -12 -65.5 t-33 -45.5t-49 -27t-60 -9zM160 745l120 102l25 -26l-134 -88z" />
<glyph unicode="&#xd4;" horiz-adv-x="398" d="M328 558q0 60 -37.5 90.5t-91.5 30.5q-56 0 -92.5 -33t-36.5 -93v-416q0 -61 36.5 -91t92.5 -30q62 0 95.5 32t33.5 93v417zM199 -7q-32 0 -60 8.5t-49 26.5t-33 45t-12 65v416q0 37 12 65t33 46.5t49 27.5t60 9t60 -8.5t49 -26t33 -44.5t12 -64v-419q0 -38 -12 -65.5 t-33 -45.5t-49 -27t-60 -9zM200 816l-107 -78l-11 10l107 94h24l104 -92l-12 -11z" />
<glyph unicode="&#xd5;" horiz-adv-x="398" d="M328 558q0 60 -37.5 90.5t-91.5 30.5q-56 0 -92.5 -33t-36.5 -93v-416q0 -61 36.5 -91t92.5 -30q62 0 95.5 32t33.5 93v417zM199 -7q-32 0 -60 8.5t-49 26.5t-33 45t-12 65v416q0 37 12 65t33 46.5t49 27.5t60 9t60 -8.5t49 -26t33 -44.5t12 -64v-419q0 -38 -12 -65.5 t-33 -45.5t-49 -27t-60 -9zM263 741q-15 0 -29.5 6t-29 13t-28 13t-27.5 6q-12 0 -24 -9.5t-22 -24.5l-16 10q25 47 63 47q16 0 30 -6t27.5 -12.5t28 -12.5t30.5 -6q32 0 50 38l16 -7q-9 -30 -29 -42.5t-40 -12.5z" />
<glyph unicode="&#xd6;" horiz-adv-x="398" d="M328 558q0 60 -37.5 90.5t-91.5 30.5q-56 0 -92.5 -33t-36.5 -93v-416q0 -61 36.5 -91t92.5 -30q62 0 95.5 32t33.5 93v417zM199 -7q-32 0 -60 8.5t-49 26.5t-33 45t-12 65v416q0 37 12 65t33 46.5t49 27.5t60 9t60 -8.5t49 -26t33 -44.5t12 -64v-419q0 -38 -12 -65.5 t-33 -45.5t-49 -27t-60 -9zM113 773h28v-32h-28v32zM255 773h28v-32h-28v32z" />
<glyph unicode="&#xd7;" horiz-adv-x="380" d="M56 147l-16 17l132 131l-119 119l17 17l119 -119l129 130l16 -17l-129 -129l126 -126l-17 -17l-126 126z" />
<glyph unicode="&#xd8;" horiz-adv-x="398" d="M199 -7q-37 0 -68.5 11.5t-52.5 34.5l-23 -54l-19 9l28 65q-19 33 -19 79v416q0 37 12 65t33 46.5t49 27.5t60 9q36 0 66.5 -10.5t52.5 -33.5l23 54l20 -9l-28 -65q20 -32 20 -79v-419q0 -38 -12 -65.5t-33 -45.5t-49 -27t-60 -9zM328 558q0 26 -8 48l-231 -541 q17 -25 45.5 -37t64.5 -12q62 0 95.5 32t33.5 93v417zM70 137q0 -13 2 -24.5t5 -21.5l229 540q-17 23 -45 35.5t-62 12.5q-56 0 -92.5 -33t-36.5 -93v-416z" />
<glyph unicode="&#xd9;" horiz-adv-x="380" d="M343 695v-555q0 -38 -12 -65.5t-33 -45.5t-49 -27t-60 -9t-60 8.5t-49 26.5t-33 45t-12 65v557h25v-558q0 -61 36.5 -91t92.5 -30q62 0 95.5 32t33.5 93v554h25zM202 733l-134 88l25 26l120 -102z" />
<glyph unicode="&#xda;" horiz-adv-x="380" d="M343 695v-555q0 -38 -12 -65.5t-33 -45.5t-49 -27t-60 -9t-60 8.5t-49 26.5t-33 45t-12 65v557h25v-558q0 -61 36.5 -91t92.5 -30q62 0 95.5 32t33.5 93v554h25zM150 745l120 102l25 -26l-134 -88z" />
<glyph unicode="&#xdb;" horiz-adv-x="380" d="M343 695v-555q0 -38 -12 -65.5t-33 -45.5t-49 -27t-60 -9t-60 8.5t-49 26.5t-33 45t-12 65v557h25v-558q0 -61 36.5 -91t92.5 -30q62 0 95.5 32t33.5 93v554h25zM190 816l-107 -78l-11 10l107 94h24l104 -92l-12 -11z" />
<glyph unicode="&#xdc;" horiz-adv-x="380" d="M343 695v-555q0 -38 -12 -65.5t-33 -45.5t-49 -27t-60 -9t-60 8.5t-49 26.5t-33 45t-12 65v557h25v-558q0 -61 36.5 -91t92.5 -30q62 0 95.5 32t33.5 93v554h25zM107 773h28v-32h-28v32zM249 773h28v-32h-28v32z" />
<glyph unicode="&#xdd;" horiz-adv-x="337" d="M167 326l131 370h27l-146 -403v-293h-25v293l-146 403h25l132 -370h2zM147 745l120 102l25 -26l-134 -88z" />
<glyph unicode="&#xde;" horiz-adv-x="382" d="M184 555q52 0 86.5 -14.5t54 -40t27.5 -60t8 -75.5q0 -46 -9 -83t-29.5 -63.5t-54.5 -40.5t-84 -14h-106v-163h-25v695h25v-141h107zM77 533v-347h103q83 0 119.5 42.5t36.5 135.5q0 37 -7.5 68.5t-25.5 53.5t-47.5 34.5t-73.5 12.5h-105z" />
<glyph unicode="&#xdf;" horiz-adv-x="347" d="M227 431q26 -5 41.5 -18t24 -31t11.5 -39.5t3 -43.5v-157q0 -32 -5 -59t-17.5 -47t-34 -31.5t-55.5 -11.5h-40v22h22q61 0 82.5 33t21.5 94v164q0 48 -24.5 80t-73.5 32v26q22 0 38.5 8.5t27.5 22t17 30.5t6 34v59q0 43 -29.5 73.5t-77.5 30.5t-76.5 -30.5t-28.5 -73.5 v-598h-25v601q0 31 10.5 54t28.5 39t42 24t51 8q26 0 49.5 -8.5t41.5 -24t29 -39t11 -53.5v-61q0 -16 -3.5 -32t-12 -30.5t-22 -26t-33.5 -17.5v-3z" />
<glyph unicode="&#xe0;" horiz-adv-x="334" d="M166 259q-51 0 -84 -30.5t-33 -102.5q0 -21 5.5 -41t18 -35t33 -24.5t50.5 -9.5q46 0 78.5 25t32.5 75v143h-101zM39 423q15 32 46 52t82 20q61 0 93.5 -27.5t32.5 -99.5v-368h-26v44h-2q-13 -17 -28 -27t-30.5 -15t-31 -6.5t-28.5 -1.5q-34 0 -57.5 11t-38 29.5t-21 43 t-6.5 51.5q0 28 6.5 55.5t22.5 49.5t42.5 35.5t66.5 13.5h105v83q0 23 -4 42.5t-15 33.5t-31 22t-52 8q-39 0 -65.5 -17t-36.5 -42zM182 556l-84 136l33 13l66 -143z" />
<glyph unicode="&#xe1;" horiz-adv-x="334" d="M166 259q-51 0 -84 -30.5t-33 -102.5q0 -21 5.5 -41t18 -35t33 -24.5t50.5 -9.5q46 0 78.5 25t32.5 75v143h-101zM39 423q15 32 46 52t82 20q61 0 93.5 -27.5t32.5 -99.5v-368h-26v44h-2q-13 -17 -28 -27t-30.5 -15t-31 -6.5t-28.5 -1.5q-34 0 -57.5 11t-38 29.5t-21 43 t-6.5 51.5q0 28 6.5 55.5t22.5 49.5t42.5 35.5t66.5 13.5h105v83q0 23 -4 42.5t-15 33.5t-31 22t-52 8q-39 0 -65.5 -17t-36.5 -42zM157 562l66 143l33 -13l-84 -136z" />
<glyph unicode="&#xe2;" horiz-adv-x="334" d="M166 259q-51 0 -84 -30.5t-33 -102.5q0 -21 5.5 -41t18 -35t33 -24.5t50.5 -9.5q46 0 78.5 25t32.5 75v143h-101zM39 423q15 32 46 52t82 20q61 0 93.5 -27.5t32.5 -99.5v-368h-26v44h-2q-13 -17 -28 -27t-30.5 -15t-31 -6.5t-28.5 -1.5q-34 0 -57.5 11t-38 29.5t-21 43 t-6.5 51.5q0 28 6.5 55.5t22.5 49.5t42.5 35.5t66.5 13.5h105v83q0 23 -4 42.5t-15 33.5t-31 22t-52 8q-39 0 -65.5 -17t-36.5 -42zM169 649l-107 -98l-11 10l107 114h24l104 -112l-12 -11z" />
<glyph unicode="&#xe3;" horiz-adv-x="334" d="M166 259q-51 0 -84 -30.5t-33 -102.5q0 -21 5.5 -41t18 -35t33 -24.5t50.5 -9.5q46 0 78.5 25t32.5 75v143h-101zM39 423q15 32 46 52t82 20q61 0 93.5 -27.5t32.5 -99.5v-368h-26v44h-2q-13 -17 -28 -27t-30.5 -15t-31 -6.5t-28.5 -1.5q-34 0 -57.5 11t-38 29.5t-21 43 t-6.5 51.5q0 28 6.5 55.5t22.5 49.5t42.5 35.5t66.5 13.5h105v83q0 23 -4 42.5t-15 33.5t-31 22t-52 8q-39 0 -65.5 -17t-36.5 -42zM235 571q-15 0 -29.5 6t-29 13t-28 13t-27.5 6q-12 0 -24 -9.5t-22 -24.5l-16 10q25 47 63 47q16 0 30 -6t27.5 -12.5t28 -12.5t30.5 -6 q32 0 50 38l16 -7q-9 -30 -29 -42.5t-40 -12.5z" />
<glyph unicode="&#xe4;" horiz-adv-x="334" d="M166 259q-51 0 -84 -30.5t-33 -102.5q0 -21 5.5 -41t18 -35t33 -24.5t50.5 -9.5q46 0 78.5 25t32.5 75v143h-101zM39 423q15 32 46 52t82 20q61 0 93.5 -27.5t32.5 -99.5v-368h-26v44h-2q-13 -17 -28 -27t-30.5 -15t-31 -6.5t-28.5 -1.5q-34 0 -57.5 11t-38 29.5t-21 43 t-6.5 51.5q0 28 6.5 55.5t22.5 49.5t42.5 35.5t66.5 13.5h105v83q0 23 -4 42.5t-15 33.5t-31 22t-52 8q-39 0 -65.5 -17t-36.5 -42zM83 615h28v-32h-28v32zM225 615h28v-32h-28v32z" />
<glyph unicode="&#xe5;" horiz-adv-x="334" d="M166 259q-51 0 -84 -30.5t-33 -102.5q0 -21 5.5 -41t18 -35t33 -24.5t50.5 -9.5q46 0 78.5 25t32.5 75v143h-101zM39 423q15 32 46 52t82 20q61 0 93.5 -27.5t32.5 -99.5v-368h-26v44h-2q-13 -17 -28 -27t-30.5 -15t-31 -6.5t-28.5 -1.5q-34 0 -57.5 11t-38 29.5t-21 43 t-6.5 51.5q0 28 6.5 55.5t22.5 49.5t42.5 35.5t66.5 13.5h105v83q0 23 -4 42.5t-15 33.5t-31 22t-52 8q-39 0 -65.5 -17t-36.5 -42zM172 554q-30 0 -52 22.5t-22 54.5q0 34 22 56t52 22q32 0 54 -22t22 -56q0 -32 -22 -54.5t-54 -22.5zM172 690q-22 0 -38.5 -17t-16.5 -42 q0 -23 16.5 -40.5t38.5 -17.5q23 0 40 17.5t17 40.5q0 25 -17 42t-40 17z" />
<glyph unicode="&#xe6;" horiz-adv-x="563" d="M403 -7q-41 0 -73.5 16t-48.5 49q-18 -26 -36.5 -39t-36 -18.5t-33.5 -6t-28 -0.5q-34 0 -57.5 11t-38 29.5t-21 43t-6.5 51.5q0 28 6.5 55.5t22.5 49.5t42.5 35.5t66.5 13.5h105v83q0 23 -5 42.5t-17 33.5t-32.5 22t-52.5 8q-39 0 -63 -17t-34 -42l-24 10q15 32 43.5 52 t79.5 20q45 0 75.5 -14t44.5 -49q17 32 49.5 47.5t71.5 15.5q59 0 96.5 -31.5t37.5 -91.5v-114h-244v-141q0 -20 7.5 -38t21 -32t33.5 -22.5t46 -8.5q51 0 77.5 29.5t30.5 68.5l24 -5q-5 -56 -42.5 -86t-87.5 -30zM166 258q-51 0 -84 -30t-33 -102q0 -21 5.5 -41t18 -35 t33 -24.5t50.5 -9.5q46 0 78.5 25t32.5 75v142h-101zM511 283v88q0 43 -28 71.5t-82 28.5q-51 0 -78.5 -27.5t-29.5 -72.5v-88h218z" />
<glyph unicode="&#xe7;" horiz-adv-x="327" d="M172 495q57 0 91.5 -30.5t34.5 -90.5l-26 -5q0 48 -26 75t-77 27q-28 0 -54.5 -12t-40.5 -46q-8 -19 -9.5 -67t-2.5 -109v-18q0 -18 0.5 -39t1.5 -40.5t3 -36t5 -25.5q10 -29 33.5 -45.5t61.5 -16.5q48 0 75.5 24.5t29.5 77.5l26 -5q-2 -58 -34 -87t-84 -32l-15 -61 q24 -2 39.5 -9t24.5 -17.5t13 -22t4 -21.5q0 -26 -18 -48t-56 -22q-19 0 -35.5 3t-36.5 13l9 19q16 -8 31 -10.5t27 -2.5q24 0 39 12t15 35q0 20 -16.5 34.5t-49.5 16.5l-16 11l19 69q-54 3 -80 28t-34 56q-3 12 -5 31.5t-3 41.5t-1 45v43q0 27 0.5 54.5t2 52t4 44t6.5 31.5 q12 33 42 54t82 21z" />
<glyph unicode="&#xe8;" horiz-adv-x="334" d="M171 495q59 0 93 -31.5t34 -91.5v-127h-237v-26q0 -18 0.5 -39t1.5 -40.5t3 -36t5 -25.5q8 -25 30.5 -43.5t63.5 -18.5q26 0 45.5 8t32 21.5t19.5 31t9 37.5l24 -5q-5 -56 -41 -86t-86 -30q-30 0 -51.5 7t-36.5 19t-24 27t-13 31q-3 12 -5 31.5t-3 41.5t-1 45v43 q0 27 0.5 55t2 53t4.5 45t7 32q12 33 41.5 52.5t81.5 19.5zM73 414q-8 -20 -9.5 -57.5t-2.5 -88.5h211v103q0 43 -24 71.5t-78 28.5q-28 0 -55.5 -11.5t-41.5 -45.5zM183 556l-84 136l33 13l66 -143z" />
<glyph unicode="&#xe9;" horiz-adv-x="334" d="M171 495q59 0 93 -31.5t34 -91.5v-127h-237v-26q0 -18 0.5 -39t1.5 -40.5t3 -36t5 -25.5q8 -25 30.5 -43.5t63.5 -18.5q26 0 45.5 8t32 21.5t19.5 31t9 37.5l24 -5q-5 -56 -41 -86t-86 -30q-30 0 -51.5 7t-36.5 19t-24 27t-13 31q-3 12 -5 31.5t-3 41.5t-1 45v43 q0 27 0.5 55t2 53t4.5 45t7 32q12 33 41.5 52.5t81.5 19.5zM73 414q-8 -20 -9.5 -57.5t-2.5 -88.5h211v103q0 43 -24 71.5t-78 28.5q-28 0 -55.5 -11.5t-41.5 -45.5zM151 562l66 143l33 -13l-84 -136z" />
<glyph unicode="&#xea;" horiz-adv-x="334" d="M171 495q59 0 93 -31.5t34 -91.5v-127h-237v-26q0 -18 0.5 -39t1.5 -40.5t3 -36t5 -25.5q8 -25 30.5 -43.5t63.5 -18.5q26 0 45.5 8t32 21.5t19.5 31t9 37.5l24 -5q-5 -56 -41 -86t-86 -30q-30 0 -51.5 7t-36.5 19t-24 27t-13 31q-3 12 -5 31.5t-3 41.5t-1 45v43 q0 27 0.5 55t2 53t4.5 45t7 32q12 33 41.5 52.5t81.5 19.5zM73 414q-8 -20 -9.5 -57.5t-2.5 -88.5h211v103q0 43 -24 71.5t-78 28.5q-28 0 -55.5 -11.5t-41.5 -45.5zM166 649l-107 -98l-11 10l107 114h24l104 -112l-12 -11z" />
<glyph unicode="&#xeb;" horiz-adv-x="334" d="M171 495q59 0 93 -31.5t34 -91.5v-127h-237v-26q0 -18 0.5 -39t1.5 -40.5t3 -36t5 -25.5q8 -25 30.5 -43.5t63.5 -18.5q26 0 45.5 8t32 21.5t19.5 31t9 37.5l24 -5q-5 -56 -41 -86t-86 -30q-30 0 -51.5 7t-36.5 19t-24 27t-13 31q-3 12 -5 31.5t-3 41.5t-1 45v43 q0 27 0.5 55t2 53t4.5 45t7 32q12 33 41.5 52.5t81.5 19.5zM73 414q-8 -20 -9.5 -57.5t-2.5 -88.5h211v103q0 43 -24 71.5t-78 28.5q-28 0 -55.5 -11.5t-41.5 -45.5zM79 615h28v-32h-28v32zM221 615h28v-32h-28v32z" />
<glyph unicode="&#xec;" horiz-adv-x="147" d="M60 487h25v-487h-25v487zM63 556l-84 136l33 13l66 -143z" />
<glyph unicode="&#xed;" horiz-adv-x="147" d="M60 487h25v-487h-25v487zM61 562l66 143l33 -13l-84 -136z" />
<glyph unicode="&#xee;" horiz-adv-x="195" d="M84 487h25v-487h-25v487zM98 649l-107 -98l-11 10l107 114h24l104 -112l-12 -11z" />
<glyph unicode="&#xef;" horiz-adv-x="160" d="M68 487h25v-487h-25v487zM-5 615h28v-32h-28v32zM137 615h28v-32h-28v32z" />
<glyph unicode="&#xf0;" horiz-adv-x="344" d="M173 475q9 0 23.5 -2.5t29.5 -8.5t29.5 -16.5t23.5 -26.5h1l-1 64q0 32 -5 64t-16 55l-82 -55l-14 20l85 57q-9 13 -21 26t-28.5 24.5t-39 20t-53.5 12.5l5 24q65 -9 102.5 -34.5t57.5 -57.5l63 42l13 -20l-65 -44q15 -35 19.5 -76.5t4.5 -89.5v-230q0 -26 -0.5 -53.5 t-3.5 -59.5q-3 -33 -15.5 -55t-30.5 -36t-39.5 -20t-43.5 -6q-60 0 -89 23t-40 62q-3 12 -4.5 34.5t-2.5 48.5t-1 53v47q0 46 2.5 81t10.5 58q12 33 43.5 54t81.5 21zM172 451q-28 0 -56 -12.5t-42 -46.5q-4 -9 -6 -19.5t-3.5 -25.5t-2.5 -36t-1 -51v-41q0 -56 2 -89t8 -52 q10 -29 34 -45.5t66 -16.5q34 0 62 17.5t39 55.5q5 16 6.5 54.5t1.5 85.5v77q0 27 -4 53t-15.5 46.5t-32.5 33t-56 12.5z" />
<glyph unicode="&#xf1;" horiz-adv-x="353" d="M72 430q17 31 47 48t65 17q37 0 61.5 -11t38 -29t19 -42.5t5.5 -51.5v-361h-26v351q0 24 -4 46t-15 38t-30.5 25.5t-49.5 9.5q-28 0 -49 -11.5t-35.5 -29.5t-21.5 -41t-7 -46v-342h-25v487h25v-57h2zM234 571q-15 0 -29.5 6t-29 13t-28 13t-27.5 6q-12 0 -24 -9.5 t-22 -24.5l-16 10q25 47 63 47q16 0 30 -6t27.5 -12.5t28 -12.5t30.5 -6q32 0 50 38l16 -7q-9 -30 -29 -42.5t-40 -12.5z" />
<glyph unicode="&#xf2;" horiz-adv-x="343" d="M172 495q55 0 82 -21t39 -51q4 -15 6.5 -36t4 -45t1.5 -49v-49v-21q0 -26 -0.5 -54t-3.5 -60q-3 -33 -15.5 -55t-30.5 -35.5t-39.5 -19.5t-43.5 -6q-60 0 -89 22.5t-40 61.5q-3 12 -4.5 31t-2.5 41t-1 45.5v43.5q0 27 0.5 55t1.5 53t3.5 45t6.5 32q12 33 42.5 52.5 t82.5 19.5zM171 471q-14 0 -28.5 -2.5t-27.5 -8.5t-24 -17t-18 -28q-9 -23 -10 -70t-2 -108v-18q0 -56 2 -89.5t8 -52.5q10 -29 34 -45t66 -16q34 0 62 17t39 55q5 16 6.5 55t1.5 86q0 23 -0.5 50t-1.5 52t-3 45t-5 31q-10 33 -37 48.5t-62 15.5zM179 556l-84 136l33 13 l66 -143z" />
<glyph unicode="&#xf3;" horiz-adv-x="343" d="M172 495q55 0 82 -21t39 -51q4 -15 6.5 -36t4 -45t1.5 -49v-49v-21q0 -26 -0.5 -54t-3.5 -60q-3 -33 -15.5 -55t-30.5 -35.5t-39.5 -19.5t-43.5 -6q-60 0 -89 22.5t-40 61.5q-3 12 -4.5 31t-2.5 41t-1 45.5v43.5q0 27 0.5 55t1.5 53t3.5 45t6.5 32q12 33 42.5 52.5 t82.5 19.5zM171 471q-14 0 -28.5 -2.5t-27.5 -8.5t-24 -17t-18 -28q-9 -23 -10 -70t-2 -108v-18q0 -56 2 -89.5t8 -52.5q10 -29 34 -45t66 -16q34 0 62 17t39 55q5 16 6.5 55t1.5 86q0 23 -0.5 50t-1.5 52t-3 45t-5 31q-10 33 -37 48.5t-62 15.5zM152 562l66 143l33 -13 l-84 -136z" />
<glyph unicode="&#xf4;" horiz-adv-x="343" d="M172 495q55 0 82 -21t39 -51q4 -15 6.5 -36t4 -45t1.5 -49v-49v-21q0 -26 -0.5 -54t-3.5 -60q-3 -33 -15.5 -55t-30.5 -35.5t-39.5 -19.5t-43.5 -6q-60 0 -89 22.5t-40 61.5q-3 12 -4.5 31t-2.5 41t-1 45.5v43.5q0 27 0.5 55t1.5 53t3.5 45t6.5 32q12 33 42.5 52.5 t82.5 19.5zM171 471q-14 0 -28.5 -2.5t-27.5 -8.5t-24 -17t-18 -28q-9 -23 -10 -70t-2 -108v-18q0 -56 2 -89.5t8 -52.5q10 -29 34 -45t66 -16q34 0 62 17t39 55q5 16 6.5 55t1.5 86q0 23 -0.5 50t-1.5 52t-3 45t-5 31q-10 33 -37 48.5t-62 15.5zM175 649l-107 -98l-11 10 l107 114h24l104 -112l-12 -11z" />
<glyph unicode="&#xf5;" horiz-adv-x="343" d="M172 495q55 0 82 -21t39 -51q4 -15 6.5 -36t4 -45t1.5 -49v-49v-21q0 -26 -0.5 -54t-3.5 -60q-3 -33 -15.5 -55t-30.5 -35.5t-39.5 -19.5t-43.5 -6q-60 0 -89 22.5t-40 61.5q-3 12 -4.5 31t-2.5 41t-1 45.5v43.5q0 27 0.5 55t1.5 53t3.5 45t6.5 32q12 33 42.5 52.5 t82.5 19.5zM171 471q-14 0 -28.5 -2.5t-27.5 -8.5t-24 -17t-18 -28q-9 -23 -10 -70t-2 -108v-18q0 -56 2 -89.5t8 -52.5q10 -29 34 -45t66 -16q34 0 62 17t39 55q5 16 6.5 55t1.5 86q0 23 -0.5 50t-1.5 52t-3 45t-5 31q-10 33 -37 48.5t-62 15.5zM228 571q-15 0 -29.5 6 t-29 13t-28 13t-27.5 6q-12 0 -24 -9.5t-22 -24.5l-16 10q25 47 63 47q16 0 30 -6t27.5 -12.5t28 -12.5t30.5 -6q32 0 50 38l16 -7q-9 -30 -29 -42.5t-40 -12.5z" />
<glyph unicode="&#xf6;" horiz-adv-x="343" d="M172 495q55 0 82 -21t39 -51q4 -15 6.5 -36t4 -45t1.5 -49v-49v-21q0 -26 -0.5 -54t-3.5 -60q-3 -33 -15.5 -55t-30.5 -35.5t-39.5 -19.5t-43.5 -6q-60 0 -89 22.5t-40 61.5q-3 12 -4.5 31t-2.5 41t-1 45.5v43.5q0 27 0.5 55t1.5 53t3.5 45t6.5 32q12 33 42.5 52.5 t82.5 19.5zM171 471q-14 0 -28.5 -2.5t-27.5 -8.5t-24 -17t-18 -28q-9 -23 -10 -70t-2 -108v-18q0 -56 2 -89.5t8 -52.5q10 -29 34 -45t66 -16q34 0 62 17t39 55q5 16 6.5 55t1.5 86q0 23 -0.5 50t-1.5 52t-3 45t-5 31q-10 33 -37 48.5t-62 15.5zM89 615h28v-32h-28v32z M231 615h28v-32h-28v32z" />
<glyph unicode="&#xf7;" horiz-adv-x="340" d="M170 406q-11 0 -18.5 8t-7.5 19t7.5 19t18.5 8t19 -8t8 -19t-8 -19t-19 -8zM170 116q-11 0 -18.5 8.5t-7.5 19.5t7.5 19t18.5 8t19 -8t8 -19t-8 -19.5t-19 -8.5zM19 281v24h299v-24h-299z" />
<glyph unicode="&#xf8;" horiz-adv-x="343" d="M172 495q33 0 55.5 -8t37.5 -22l18 37l20 -10l-22 -46q4 -5 6.5 -11t5.5 -12q4 -15 6.5 -36t4 -45t1.5 -49v-49v-21q0 -26 -0.5 -54t-3.5 -60q-3 -33 -15.5 -55t-30.5 -35.5t-39.5 -19.5t-43.5 -6q-35 0 -59 8t-39 22l-17 -34l-19 11l20 41q-5 8 -8.5 16.5t-6.5 19.5 q-3 12 -4.5 31t-2.5 41t-1 45.5v43.5q0 27 0.5 55t1.5 53t3.5 45t6.5 32q12 33 42.5 52.5t82.5 19.5zM270 407q-1 2 -1.5 5t-2.5 5l-180 -369q26 -32 85 -32q34 0 62 17t39 55q5 16 6.5 55t1.5 86q0 23 -0.5 50t-1.5 52t-3 45t-5 31zM171 471q-14 0 -28.5 -2.5t-27.5 -8.5 t-24 -17t-18 -28q-9 -23 -10 -70t-2 -108v-18q0 -56 2 -89.5t8 -52.5q0 -2 2 -6l179 368q-14 17 -35 24.5t-46 7.5z" />
<glyph unicode="&#xf9;" horiz-adv-x="353" d="M282 57q-17 -31 -47 -48t-65 -17q-38 0 -62 11t-37.5 29t-19 42.5t-5.5 51.5v361h26v-351q0 -24 4 -46t15 -38t30.5 -25.5t49.5 -9.5q28 0 49 11.5t35 29.5t21.5 41t7.5 46v342h25v-487h-25v57h-2zM193 556l-84 136l33 13l66 -143z" />
<glyph unicode="&#xfa;" horiz-adv-x="353" d="M282 57q-17 -31 -47 -48t-65 -17q-38 0 -62 11t-37.5 29t-19 42.5t-5.5 51.5v361h26v-351q0 -24 4 -46t15 -38t30.5 -25.5t49.5 -9.5q28 0 49 11.5t35 29.5t21.5 41t7.5 46v342h25v-487h-25v57h-2zM177 562l66 143l33 -13l-84 -136z" />
<glyph unicode="&#xfb;" horiz-adv-x="353" d="M282 57q-17 -31 -47 -48t-65 -17q-38 0 -62 11t-37.5 29t-19 42.5t-5.5 51.5v361h26v-351q0 -24 4 -46t15 -38t30.5 -25.5t49.5 -9.5q28 0 49 11.5t35 29.5t21.5 41t7.5 46v342h25v-487h-25v57h-2zM180 649l-107 -98l-11 10l107 114h24l104 -112l-12 -11z" />
<glyph unicode="&#xfc;" horiz-adv-x="353" d="M282 57q-17 -31 -47 -48t-65 -17q-38 0 -62 11t-37.5 29t-19 42.5t-5.5 51.5v361h26v-351q0 -24 4 -46t15 -38t30.5 -25.5t49.5 -9.5q28 0 49 11.5t35 29.5t21.5 41t7.5 46v342h25v-487h-25v57h-2zM84 615h28v-32h-28v32zM226 615h28v-32h-28v32z" />
<glyph unicode="&#xfd;" horiz-adv-x="304" d="M151 46l122 441h26l-166 -595q-10 -39 -34.5 -66t-68.5 -27h-7v23h7q33 0 52.5 23.5t29.5 63.5l24 96l-129 482h27l115 -441h2zM138 562l66 143l33 -13l-84 -136z" />
<glyph unicode="&#xfe;" horiz-adv-x="342" d="M178 470q-50 0 -82 -33t-32 -86v-205q0 -24 7 -47.5t21 -42t34.5 -30t47.5 -11.5q33 0 59 18.5t36 51.5q3 10 4.5 29.5t2.5 43.5t1 50v49q0 47 -1 85.5t-6 54.5q-11 41 -34.5 57t-57.5 16zM180 493q21 0 41.5 -5.5t37 -19t28 -35t14.5 -54.5q3 -32 3 -61v-55v-21 q0 -57 -0.5 -102t-11.5 -74q-5 -15 -14.5 -28.5t-23.5 -24t-34 -16.5t-47 -6q-26 0 -44 7t-30.5 17t-20 21t-12.5 19h-2v-251h-25v891h25v-259h2q17 26 45 41.5t69 15.5z" />
<glyph unicode="&#xff;" horiz-adv-x="304" d="M151 46l122 441h26l-166 -595q-10 -39 -34.5 -66t-68.5 -27h-7v23h7q33 0 52.5 23.5t29.5 63.5l24 96l-129 482h27l115 -441h2zM70 615h28v-32h-28v32zM212 615h28v-32h-28v32z" />
<glyph unicode="&#x100;" horiz-adv-x="367" d="M289 196h-213l-44 -196h-24l156 696h37l158 -696h-25zM142 493l-61 -274h203l-62 276l-39 178h-2zM86 774h191v-24h-191v24z" />
<glyph unicode="&#x101;" horiz-adv-x="334" d="M166 259q-51 0 -84 -30.5t-33 -102.5q0 -21 5.5 -41t18 -35t33 -24.5t50.5 -9.5q46 0 78.5 25t32.5 75v143h-101zM39 423q15 32 46 52t82 20q61 0 93.5 -27.5t32.5 -99.5v-368h-26v44h-2q-13 -17 -28 -27t-30.5 -15t-31 -6.5t-28.5 -1.5q-34 0 -57.5 11t-38 29.5t-21 43 t-6.5 51.5q0 28 6.5 55.5t22.5 49.5t42.5 35.5t66.5 13.5h105v83q0 23 -4 42.5t-15 33.5t-31 22t-52 8q-39 0 -65.5 -17t-36.5 -42zM67 614h191v-24h-191v24z" />
<glyph unicode="&#x102;" horiz-adv-x="367" d="M289 196h-213l-44 -196h-24l156 696h37l158 -696h-25zM142 493l-61 -274h203l-62 276l-39 178h-2zM182 753q32 0 58 20.5t34 62.5h23q-3 -19 -11 -38t-22 -34.5t-34.5 -25t-47.5 -9.5t-47 10t-33.5 25.5t-21.5 34.5t-11 37h22q7 -38 33 -60.5t58 -22.5z" />
<glyph unicode="&#x103;" horiz-adv-x="334" d="M166 259q-51 0 -84 -30.5t-33 -102.5q0 -21 5.5 -41t18 -35t33 -24.5t50.5 -9.5q46 0 78.5 25t32.5 75v143h-101zM39 423q15 32 46 52t82 20q61 0 93.5 -27.5t32.5 -99.5v-368h-26v44h-2q-13 -17 -28 -27t-30.5 -15t-31 -6.5t-28.5 -1.5q-34 0 -57.5 11t-38 29.5t-21 43 t-6.5 51.5q0 28 6.5 55.5t22.5 49.5t42.5 35.5t66.5 13.5h105v83q0 23 -4 42.5t-15 33.5t-31 22t-52 8q-39 0 -65.5 -17t-36.5 -42zM173 576q32 0 58 20.5t34 62.5h23q-3 -19 -11 -38t-22 -34.5t-34.5 -25t-47.5 -9.5t-47 10t-33.5 25.5t-21.5 34.5t-11 37h22 q7 -38 33 -60.5t58 -22.5z" />
<glyph unicode="&#x104;" horiz-adv-x="367" d="M295 -94q0 18 9 44.5t29 50.5l-44 195h-213l-44 -196h-24l156 696h37l158 -696q-17 -20 -28.5 -46.5t-11.5 -43.5q0 -30 13 -43.5t32 -13.5q10 0 23 3.5t25 12.5l8 -21q-10 -8 -25.5 -13.5t-31.5 -5.5q-32 0 -50 23t-18 54zM142 493l-61 -274h203l-62 276l-39 178h-2z " />
<glyph unicode="&#x105;" horiz-adv-x="334" d="M228 -94q0 19 9.5 45t29.5 50v43h-2q-13 -17 -28 -27t-30.5 -15t-31 -6.5t-28.5 -1.5q-34 0 -57.5 11t-38 29.5t-21 43t-6.5 51.5q0 28 6.5 55.5t22.5 49.5t42.5 35.5t66.5 13.5h105v83q0 23 -4 42.5t-15 33.5t-31 22t-52 8q-39 0 -65.5 -17t-36.5 -42l-24 10 q15 32 46 52t82 20q61 0 93.5 -27.5t32.5 -99.5v-368h-1q-17 -20 -28.5 -46.5t-11.5 -43.5q0 -30 13 -43.5t32 -13.5q10 0 23 3.5t25 12.5l8 -21q-10 -8 -25.5 -13.5t-31.5 -5.5q-32 0 -50 23t-18 54zM166 259q-51 0 -84 -30.5t-33 -102.5q0 -21 5.5 -41t18 -35t33 -24.5 t50.5 -9.5q46 0 78.5 25t32.5 75v143h-101z" />
<glyph unicode="&#x106;" horiz-adv-x="382" d="M197 16q23 0 45.5 7t40 22t28.5 39.5t11 59.5l25 -5q0 -41 -13.5 -69t-35 -45t-48 -24.5t-53.5 -7.5q-69 0 -110 36t-41 111v413q0 75 41 112t110 37q28 0 55 -7.5t48 -25t34 -45t13 -66.5l-25 -6q0 34 -10 58t-27.5 39.5t-40 22.5t-47.5 7q-59 0 -92.5 -33.5 t-33.5 -93.5v-413q0 -61 33.5 -92t92.5 -31zM134 745l120 102l25 -26l-134 -88z" />
<glyph unicode="&#x107;" horiz-adv-x="327" d="M172 495q57 0 91.5 -30.5t34.5 -90.5l-26 -5q0 48 -26 75t-77 27q-28 0 -54.5 -12t-40.5 -46q-8 -19 -9.5 -67t-2.5 -109v-18q0 -18 0.5 -39t1.5 -40.5t3 -36t5 -25.5q10 -29 33.5 -45.5t61.5 -16.5q48 0 75.5 24.5t29.5 77.5l26 -5q-2 -61 -37 -90.5t-92 -29.5 q-30 0 -51.5 7t-36.5 19t-24 27t-13 31q-3 12 -5 31.5t-3 41.5t-1 45v43q0 27 0.5 54.5t2 52t4 44t6.5 31.5q12 33 42 54t82 21zM154 562l66 143l33 -13l-84 -136z" />
<glyph unicode="&#x108;" horiz-adv-x="382" d="M197 16q23 0 45.5 7t40 22t28.5 39.5t11 59.5l25 -5q0 -41 -13.5 -69t-35 -45t-48 -24.5t-53.5 -7.5q-69 0 -110 36t-41 111v413q0 75 41 112t110 37q28 0 55 -7.5t48 -25t34 -45t13 -66.5l-25 -6q0 34 -10 58t-27.5 39.5t-40 22.5t-47.5 7q-59 0 -92.5 -33.5 t-33.5 -93.5v-413q0 -61 33.5 -92t92.5 -31zM199 816l-107 -78l-11 10l107 94h24l104 -92l-12 -11z" />
<glyph unicode="&#x109;" horiz-adv-x="327" d="M172 495q57 0 91.5 -30.5t34.5 -90.5l-26 -5q0 48 -26 75t-77 27q-28 0 -54.5 -12t-40.5 -46q-8 -19 -9.5 -67t-2.5 -109v-18q0 -18 0.5 -39t1.5 -40.5t3 -36t5 -25.5q10 -29 33.5 -45.5t61.5 -16.5q48 0 75.5 24.5t29.5 77.5l26 -5q-2 -61 -37 -90.5t-92 -29.5 q-30 0 -51.5 7t-36.5 19t-24 27t-13 31q-3 12 -5 31.5t-3 41.5t-1 45v43q0 27 0.5 54.5t2 52t4 44t6.5 31.5q12 33 42 54t82 21zM172 649l-107 -98l-11 10l107 114h24l104 -112l-12 -11z" />
<glyph unicode="&#x10a;" horiz-adv-x="382" d="M197 16q23 0 45.5 7t40 22t28.5 39.5t11 59.5l25 -5q0 -41 -13.5 -69t-35 -45t-48 -24.5t-53.5 -7.5q-69 0 -110 36t-41 111v413q0 75 41 112t110 37q28 0 55 -7.5t48 -25t34 -45t13 -66.5l-25 -6q0 34 -10 58t-27.5 39.5t-40 22.5t-47.5 7q-59 0 -92.5 -33.5 t-33.5 -93.5v-413q0 -61 33.5 -92t92.5 -31zM183 785h28v-32h-28v32z" />
<glyph unicode="&#x10b;" horiz-adv-x="327" d="M172 495q57 0 91.5 -30.5t34.5 -90.5l-26 -5q0 48 -26 75t-77 27q-28 0 -54.5 -12t-40.5 -46q-8 -19 -9.5 -67t-2.5 -109v-18q0 -18 0.5 -39t1.5 -40.5t3 -36t5 -25.5q10 -29 33.5 -45.5t61.5 -16.5q48 0 75.5 24.5t29.5 77.5l26 -5q-2 -61 -37 -90.5t-92 -29.5 q-30 0 -51.5 7t-36.5 19t-24 27t-13 31q-3 12 -5 31.5t-3 41.5t-1 45v43q0 27 0.5 54.5t2 52t4 44t6.5 31.5q12 33 42 54t82 21zM159 615h28v-32h-28v32z" />
<glyph unicode="&#x10c;" horiz-adv-x="382" d="M197 16q23 0 45.5 7t40 22t28.5 39.5t11 59.5l25 -5q0 -41 -13.5 -69t-35 -45t-48 -24.5t-53.5 -7.5q-69 0 -110 36t-41 111v413q0 75 41 112t110 37q28 0 55 -7.5t48 -25t34 -45t13 -66.5l-25 -6q0 34 -10 58t-27.5 39.5t-40 22.5t-47.5 7q-59 0 -92.5 -33.5 t-33.5 -93.5v-413q0 -61 33.5 -92t92.5 -31zM301 841l12 -11l-104 -92h-24l-107 94l11 10l107 -78z" />
<glyph unicode="&#x10d;" horiz-adv-x="327" d="M172 495q57 0 91.5 -30.5t34.5 -90.5l-26 -5q0 48 -26 75t-77 27q-28 0 -54.5 -12t-40.5 -46q-8 -19 -9.5 -67t-2.5 -109v-18q0 -18 0.5 -39t1.5 -40.5t3 -36t5 -25.5q10 -29 33.5 -45.5t61.5 -16.5q48 0 75.5 24.5t29.5 77.5l26 -5q-2 -61 -37 -90.5t-92 -29.5 q-30 0 -51.5 7t-36.5 19t-24 27t-13 31q-3 12 -5 31.5t-3 41.5t-1 45v43q0 27 0.5 54.5t2 52t4 44t6.5 31.5q12 33 42 54t82 21zM278 674l12 -11l-104 -112h-24l-107 114l11 10l107 -98z" />
<glyph unicode="&#x10e;" horiz-adv-x="395" d="M328 516q0 33 -5.5 62t-19.5 50.5t-40 33.5t-66 12h-120v-650h121q67 0 98.5 35t31.5 116v341zM195 696q64 0 100 -22.5t50 -73.5q10 -36 10 -100v-151q0 -86 -0.5 -154.5t-10.5 -102.5q-9 -30 -25 -48t-36.5 -27.5t-45 -13t-51.5 -3.5h-135v696h144zM289 841l12 -11 l-104 -92h-24l-107 94l11 10l107 -78z" />
<glyph unicode="&#x10f;" horiz-adv-x="416" d="M385 608h-18l17 82h-9v36h36v-36zM161 16q50 0 82 33t32 86v205q0 24 -7 47.5t-21 42t-34.5 30t-47.5 11.5q-33 0 -59 -18.5t-36 -51.5q-3 -11 -4.5 -30t-2.5 -43t-1 -50v-49q0 -47 1 -85.5t6 -54.5q11 -41 34.5 -57t57.5 -16zM159 -7q-21 0 -41.5 5.5t-37 19t-28 35 t-14.5 54.5q-3 32 -3 61v55v21q0 57 0.5 102t11.5 74q10 29 37.5 52t81.5 23q26 0 44 -7t30.5 -17t20 -21t12.5 -19h2v295h25v-726h-25v50h-2q-17 -26 -45 -41.5t-69 -15.5z" />
<glyph unicode="&#x110;" horiz-adv-x="395" d="M4 388h47v308h144q64 0 100 -22.5t50 -73.5q10 -36 10 -100v-151q0 -86 -0.5 -154.5t-10.5 -102.5q-9 -30 -25 -48t-36.5 -27.5t-45 -13t-51.5 -3.5h-135v368h-47v20zM328 516q0 33 -5.5 62t-19.5 50.5t-40 33.5t-66 12h-120v-286h130v-20h-130v-344h121q67 0 98.5 35 t31.5 116v341z" />
<glyph unicode="&#x111;" horiz-adv-x="337" d="M190 610h85v116h25v-116h41v-20h-41v-590h-25v50h-2q-17 -26 -45 -41.5t-69 -15.5q-21 0 -41.5 5.5t-37 19t-28 35t-14.5 54.5q-3 32 -3 61v55v21q0 57 0.5 102t11.5 74q10 29 37.5 52t81.5 23q26 0 44 -7t30.5 -17t20 -21t12.5 -19h2v159h-85v20zM161 16q50 0 82 33 t32 86v205q0 24 -7 47.5t-21 42t-34.5 30t-47.5 11.5q-33 0 -59 -18.5t-36 -51.5q-3 -11 -4.5 -30t-2.5 -43t-1 -50v-49q0 -47 1 -85.5t6 -54.5q11 -41 34.5 -57t57.5 -16z" />
<glyph unicode="&#x112;" horiz-adv-x="350" d="M52 696h276v-23h-251v-302h223v-23h-223v-324h251v-24h-276v696zM93 774h191v-24h-191v24z" />
<glyph unicode="&#x113;" horiz-adv-x="334" d="M171 495q59 0 93 -31.5t34 -91.5v-127h-237v-26q0 -18 0.5 -39t1.5 -40.5t3 -36t5 -25.5q8 -25 30.5 -43.5t63.5 -18.5q26 0 45.5 8t32 21.5t19.5 31t9 37.5l24 -5q-5 -56 -41 -86t-86 -30q-30 0 -51.5 7t-36.5 19t-24 27t-13 31q-3 12 -5 31.5t-3 41.5t-1 45v43 q0 27 0.5 55t2 53t4.5 45t7 32q12 33 41.5 52.5t81.5 19.5zM73 414q-8 -20 -9.5 -57.5t-2.5 -88.5h211v103q0 43 -24 71.5t-78 28.5q-28 0 -55.5 -11.5t-41.5 -45.5zM80 614h191v-24h-191v24z" />
<glyph unicode="&#x114;" horiz-adv-x="350" d="M52 696h276v-23h-251v-302h223v-23h-223v-324h251v-24h-276v696zM186 753q32 0 58 20.5t34 62.5h23q-3 -19 -11 -38t-22 -34.5t-34.5 -25t-47.5 -9.5t-47 10t-33.5 25.5t-21.5 34.5t-11 37h22q7 -38 33 -60.5t58 -22.5z" />
<glyph unicode="&#x115;" horiz-adv-x="334" d="M171 495q59 0 93 -31.5t34 -91.5v-127h-237v-26q0 -18 0.5 -39t1.5 -40.5t3 -36t5 -25.5q8 -25 30.5 -43.5t63.5 -18.5q26 0 45.5 8t32 21.5t19.5 31t9 37.5l24 -5q-5 -56 -41 -86t-86 -30q-30 0 -51.5 7t-36.5 19t-24 27t-13 31q-3 12 -5 31.5t-3 41.5t-1 45v43 q0 27 0.5 55t2 53t4.5 45t7 32q12 33 41.5 52.5t81.5 19.5zM73 414q-8 -20 -9.5 -57.5t-2.5 -88.5h211v103q0 43 -24 71.5t-78 28.5q-28 0 -55.5 -11.5t-41.5 -45.5zM168 576q32 0 58 20.5t34 62.5h23q-3 -19 -11 -38t-22 -34.5t-34.5 -25t-47.5 -9.5t-47 10t-33.5 25.5 t-21.5 34.5t-11 37h22q7 -38 33 -60.5t58 -22.5z" />
<glyph unicode="&#x116;" horiz-adv-x="350" d="M52 696h276v-23h-251v-302h223v-23h-223v-324h251v-24h-276v696zM174 785h28v-32h-28v32z" />
<glyph unicode="&#x117;" horiz-adv-x="334" d="M171 495q59 0 93 -31.5t34 -91.5v-127h-237v-26q0 -18 0.5 -39t1.5 -40.5t3 -36t5 -25.5q8 -25 30.5 -43.5t63.5 -18.5q26 0 45.5 8t32 21.5t19.5 31t9 37.5l24 -5q-5 -56 -41 -86t-86 -30q-30 0 -51.5 7t-36.5 19t-24 27t-13 31q-3 12 -5 31.5t-3 41.5t-1 45v43 q0 27 0.5 55t2 53t4.5 45t7 32q12 33 41.5 52.5t81.5 19.5zM73 414q-8 -20 -9.5 -57.5t-2.5 -88.5h211v103q0 43 -24 71.5t-78 28.5q-28 0 -55.5 -11.5t-41.5 -45.5zM164 615h28v-32h-28v32z" />
<glyph unicode="&#x118;" horiz-adv-x="350" d="M52 696h276v-23h-251v-302h223v-23h-223v-324h251v-24q-17 -20 -28.5 -46.5t-11.5 -43.5q0 -30 13 -43.5t32 -13.5q10 0 23 3.5t25 12.5l8 -21q-10 -8 -25.5 -13.5t-31.5 -5.5q-32 0 -50 23t-18 54q0 18 9 44t29 50h-250v696z" />
<glyph unicode="&#x119;" horiz-adv-x="334" d="M199 -65q0 14 4.5 31.5t15.5 35.5q-24 -9 -51 -9q-30 0 -51.5 7t-36.5 19t-24 27t-13 31q-3 12 -5 31.5t-3 41.5t-1 45v43q0 27 0.5 55t2 53t4.5 45t7 32q12 33 41.5 52.5t81.5 19.5q59 0 93 -31.5t34 -91.5v-127h-237v-26q0 -18 0.5 -39t1.5 -40.5t3 -36t5 -25.5 q8 -25 30.5 -43.5t63.5 -18.5q26 0 45.5 8t32 21.5t19.5 31t9 37.5l24 -5q-5 -50 -34 -79h1l1 -1q-17 -20 -28.5 -46.5t-11.5 -43.5q0 -30 13 -43.5t32 -13.5q10 0 23 3.5t25 12.5l8 -21q-10 -8 -25.5 -13.5t-31.5 -5.5q-32 0 -50 23t-18 54zM73 414q-8 -20 -9.5 -57.5 t-2.5 -88.5h211v103q0 43 -24 71.5t-78 28.5q-28 0 -55.5 -11.5t-41.5 -45.5z" />
<glyph unicode="&#x11a;" horiz-adv-x="350" d="M52 696h276v-23h-251v-302h223v-23h-223v-324h251v-24h-276v696zM288 841l12 -11l-104 -92h-24l-107 94l11 10l107 -78z" />
<glyph unicode="&#x11b;" horiz-adv-x="334" d="M171 495q59 0 93 -31.5t34 -91.5v-127h-237v-26q0 -18 0.5 -39t1.5 -40.5t3 -36t5 -25.5q8 -25 30.5 -43.5t63.5 -18.5q26 0 45.5 8t32 21.5t19.5 31t9 37.5l24 -5q-5 -56 -41 -86t-86 -30q-30 0 -51.5 7t-36.5 19t-24 27t-13 31q-3 12 -5 31.5t-3 41.5t-1 45v43 q0 27 0.5 55t2 53t4.5 45t7 32q12 33 41.5 52.5t81.5 19.5zM73 414q-8 -20 -9.5 -57.5t-2.5 -88.5h211v103q0 43 -24 71.5t-78 28.5q-28 0 -55.5 -11.5t-41.5 -45.5zM279 674l12 -11l-104 -112h-24l-107 114l11 10l107 -98z" />
<glyph unicode="&#x11c;" horiz-adv-x="385" d="M197 -7q-69 0 -110 36t-41 111v413q0 75 41 112t110 37q28 0 55 -7.5t48 -25t34 -45t13 -66.5l-25 -6q0 34 -10 58t-27.5 39.5t-40 22.5t-47.5 7q-59 0 -92.5 -33.5t-33.5 -93.5v-413q0 -61 34 -91.5t93 -30.5q25 0 48 8.5t41 24.5t29 39t11 52v187h-88v25h114v-212 q0 -36 -13 -63.5t-34.5 -46t-49.5 -28.5t-59 -10zM202 816l-107 -78l-11 10l107 94h24l104 -92l-12 -11z" />
<glyph unicode="&#x11d;" horiz-adv-x="349" d="M163 495q41 0 69 -15.5t45 -41.5h2v50h25v-558q0 -34 -10.5 -59t-28.5 -41.5t-42 -24.5t-51 -8q-52 0 -87.5 29.5t-37.5 90.5l26 5q0 -48 26.5 -75t74.5 -27t76.5 29.5t28.5 78.5v135h-2q-17 -32 -48.5 -51t-67.5 -19q-51 2 -76 21.5t-36 48.5q-5 15 -7 36t-3.5 45.5 t-1.5 50v49.5v21q0 26 0.5 55t3.5 61q3 33 15.5 54.5t29.5 35t37.5 19t39.5 5.5zM165 472q-29 0 -56 -16t-38 -57q-5 -16 -6 -54.5t-1 -85.5q0 -23 0.5 -50t1 -52t2.5 -45.5t5 -30.5q10 -33 33.5 -49t54.5 -16q27 0 49 11.5t37.5 30t23.5 41.5t8 45v209q0 53 -32 86t-82 33z M174 649l-107 -98l-11 10l107 114h24l104 -112l-12 -11z" />
<glyph unicode="&#x11e;" horiz-adv-x="385" d="M197 -7q-69 0 -110 36t-41 111v413q0 75 41 112t110 37q28 0 55 -7.5t48 -25t34 -45t13 -66.5l-25 -6q0 34 -10 58t-27.5 39.5t-40 22.5t-47.5 7q-59 0 -92.5 -33.5t-33.5 -93.5v-413q0 -61 34 -91.5t93 -30.5q25 0 48 8.5t41 24.5t29 39t11 52v187h-88v25h114v-212 q0 -36 -13 -63.5t-34.5 -46t-49.5 -28.5t-59 -10zM198 753q32 0 58 20.5t34 62.5h23q-3 -19 -11 -38t-22 -34.5t-34.5 -25t-47.5 -9.5t-47 10t-33.5 25.5t-21.5 34.5t-11 37h22q7 -38 33 -60.5t58 -22.5z" />
<glyph unicode="&#x11f;" horiz-adv-x="349" d="M163 495q41 0 69 -15.5t45 -41.5h2v50h25v-558q0 -34 -10.5 -59t-28.5 -41.5t-42 -24.5t-51 -8q-52 0 -87.5 29.5t-37.5 90.5l26 5q0 -48 26.5 -75t74.5 -27t76.5 29.5t28.5 78.5v135h-2q-17 -32 -48.5 -51t-67.5 -19q-51 2 -76 21.5t-36 48.5q-5 15 -7 36t-3.5 45.5 t-1.5 50v49.5v21q0 26 0.5 55t3.5 61q3 33 15.5 54.5t29.5 35t37.5 19t39.5 5.5zM165 472q-29 0 -56 -16t-38 -57q-5 -16 -6 -54.5t-1 -85.5q0 -23 0.5 -50t1 -52t2.5 -45.5t5 -30.5q10 -33 33.5 -49t54.5 -16q27 0 49 11.5t37.5 30t23.5 41.5t8 45v209q0 53 -32 86t-82 33z M171 576q32 0 58 20.5t34 62.5h23q-3 -19 -11 -38t-22 -34.5t-34.5 -25t-47.5 -9.5t-47 10t-33.5 25.5t-21.5 34.5t-11 37h22q7 -38 33 -60.5t58 -22.5z" />
<glyph unicode="&#x120;" horiz-adv-x="385" d="M197 -7q-69 0 -110 36t-41 111v413q0 75 41 112t110 37q28 0 55 -7.5t48 -25t34 -45t13 -66.5l-25 -6q0 34 -10 58t-27.5 39.5t-40 22.5t-47.5 7q-59 0 -92.5 -33.5t-33.5 -93.5v-413q0 -61 34 -91.5t93 -30.5q25 0 48 8.5t41 24.5t29 39t11 52v187h-88v25h114v-212 q0 -36 -13 -63.5t-34.5 -46t-49.5 -28.5t-59 -10zM190 785h28v-32h-28v32z" />
<glyph unicode="&#x121;" horiz-adv-x="349" d="M163 495q41 0 69 -15.5t45 -41.5h2v50h25v-558q0 -34 -10.5 -59t-28.5 -41.5t-42 -24.5t-51 -8q-52 0 -87.5 29.5t-37.5 90.5l26 5q0 -48 26.5 -75t74.5 -27t76.5 29.5t28.5 78.5v135h-2q-17 -32 -48.5 -51t-67.5 -19q-51 2 -76 21.5t-36 48.5q-5 15 -7 36t-3.5 45.5 t-1.5 50v49.5v21q0 26 0.5 55t3.5 61q3 33 15.5 54.5t29.5 35t37.5 19t39.5 5.5zM165 472q-29 0 -56 -16t-38 -57q-5 -16 -6 -54.5t-1 -85.5q0 -23 0.5 -50t1 -52t2.5 -45.5t5 -30.5q10 -33 33.5 -49t54.5 -16q27 0 49 11.5t37.5 30t23.5 41.5t8 45v209q0 53 -32 86t-82 33z M157 615h28v-32h-28v32z" />
<glyph unicode="&#x122;" horiz-adv-x="385" d="M197 -7q-69 0 -110 36t-41 111v413q0 75 41 112t110 37q28 0 55 -7.5t48 -25t34 -45t13 -66.5l-25 -6q0 34 -10 58t-27.5 39.5t-40 22.5t-47.5 7q-59 0 -92.5 -33.5t-33.5 -93.5v-413q0 -61 34 -91.5t93 -30.5q25 0 48 8.5t41 24.5t29 39t11 52v187h-88v25h114v-212 q0 -36 -13 -63.5t-34.5 -46t-49.5 -28.5t-59 -10zM190 -178h-18l17 82h-9v36h36v-36z" />
<glyph unicode="&#x123;" horiz-adv-x="349" d="M187 684h18l-17 -82h9v-36h-36v36zM163 495q41 0 69 -15.5t45 -41.5h2v50h25v-558q0 -34 -10.5 -59t-28.5 -41.5t-42 -24.5t-51 -8q-52 0 -87.5 29.5t-37.5 90.5l26 5q0 -48 26.5 -75t74.5 -27t76.5 29.5t28.5 78.5v135h-2q-17 -32 -48.5 -51t-67.5 -19q-51 2 -76 21.5 t-36 48.5q-5 15 -7 36t-3.5 45.5t-1.5 50v49.5v21q0 26 0.5 55t3.5 61q3 33 15.5 54.5t29.5 35t37.5 19t39.5 5.5zM165 472q-29 0 -56 -16t-38 -57q-5 -16 -6 -54.5t-1 -85.5q0 -23 0.5 -50t1 -52t2.5 -45.5t5 -30.5q10 -33 33.5 -49t54.5 -16q27 0 49 11.5t37.5 30 t23.5 41.5t8 45v209q0 53 -32 86t-82 33z" />
<glyph unicode="&#x124;" horiz-adv-x="404" d="M328 345h-251v-345h-25v696h25v-327h251v327h26v-696h-26v345zM204 816l-107 -78l-11 10l107 94h24l104 -92l-12 -11z" />
<glyph unicode="&#x125;" horiz-adv-x="353" d="M71 430q17 31 47.5 48t65.5 17q37 0 61.5 -11t38 -29t19 -42.5t5.5 -51.5v-361h-26v351q0 24 -4 46t-15 38t-30.5 25.5t-49.5 9.5q-28 0 -49 -11.5t-35.5 -29.5t-21.5 -41t-7 -46v-342h-25v727h25v-297h1zM58 816l-107 -78l-11 10l107 94h24l104 -92l-12 -11z" />
<glyph unicode="&#x126;" horiz-adv-x="404" d="M328 345h-251v-345h-25v575h-40v20h40v101h25v-101h251v101h26v-101h41v-20h-41v-575h-26v345zM328 369v206h-251v-206h251z" />
<glyph unicode="&#x127;" horiz-adv-x="353" d="M0 603h45v124h25v-124h193v-20h-193v-153h1q17 31 47.5 48t65.5 17q37 0 61.5 -11t38 -29t19 -42.5t5.5 -51.5v-361h-26v351q0 24 -4 46t-15 38t-30.5 25.5t-49.5 9.5q-28 0 -49 -11.5t-35.5 -29.5t-21.5 -41t-7 -46v-342h-25v583h-45v20z" />
<glyph unicode="&#x128;" horiz-adv-x="195" d="M84 696h25v-696h-25v696zM151 721q-15 0 -29.5 6t-29 13t-28 13t-27.5 6q-12 0 -24 -9.5t-22 -24.5l-16 10q25 47 63 47q16 0 30 -6t27.5 -12.5t28 -12.5t30.5 -6q32 0 50 38l16 -7q-9 -30 -29 -42.5t-40 -12.5z" />
<glyph unicode="&#x129;" horiz-adv-x="218" d="M93 487h25v-487h-25v487zM162 571q-15 0 -29.5 6t-29 13t-28 13t-27.5 6q-12 0 -24 -9.5t-22 -24.5l-16 10q25 47 63 47q16 0 30 -6t27.5 -12.5t28 -12.5t30.5 -6q32 0 50 38l16 -7q-9 -30 -29 -42.5t-40 -12.5z" />
<glyph unicode="&#x12a;" horiz-adv-x="165" d="M70 696h25v-696h-25v696zM-12 774h191v-24h-191v24z" />
<glyph unicode="&#x12b;" horiz-adv-x="155" d="M65 487h25v-487h-25v487zM-18 614h191v-24h-191v24z" />
<glyph unicode="&#x12c;" horiz-adv-x="165" d="M81 753q32 0 58 20.5t34 62.5h23q-3 -19 -11 -38t-22 -34.5t-34.5 -25t-47.5 -9.5t-47 10t-33.5 25.5t-21.5 34.5t-11 37h22q7 -38 33 -60.5t58 -22.5zM70 696h25v-696h-25v696z" />
<glyph unicode="&#x12d;" horiz-adv-x="198" d="M86 487h25v-487h-25v487zM98 582q32 0 58 20.5t34 62.5h23q-3 -19 -11 -38t-22 -34.5t-34.5 -25t-47.5 -9.5t-47 10t-33.5 25.5t-21.5 34.5t-11 37h22q7 -38 33 -60.5t58 -22.5z" />
<glyph unicode="&#x12e;" horiz-adv-x="165" d="M31 -94q0 19 9.5 45t29.5 50v695h25v-696q-17 -20 -28.5 -46.5t-11.5 -43.5q0 -30 13 -43.5t32 -13.5q10 0 23 3.5t25 12.5l8 -21q-10 -8 -25.5 -13.5t-31.5 -5.5q-32 0 -50 23t-18 54z" />
<glyph unicode="&#x12f;" horiz-adv-x="147" d="M21 -94q0 19 9.5 45t29.5 50v486h25v-487q-17 -20 -28.5 -46.5t-11.5 -43.5q0 -30 13 -43.5t32 -13.5q10 0 23 3.5t25 12.5l8 -21q-10 -8 -25.5 -13.5t-31.5 -5.5q-32 0 -50 23t-18 54zM59 636h28v-32h-28v32z" />
<glyph unicode="&#x130;" horiz-adv-x="165" d="M70 696h25v-696h-25v696zM69 765h28v-32h-28v32z" />
<glyph unicode="&#x131;" horiz-adv-x="147" d="M60 487h25v-487h-25v487z" />
<glyph unicode="&#x132;" horiz-adv-x="467" d="M68 696h25v-696h-25v696zM397 136q0 -66 -40 -104.5t-117 -38.5q-25 0 -49.5 6t-38.5 15l12 22q17 -11 39 -15t40 -4t40 4t42 17t33.5 37.5t13.5 64.5v556h25v-560z" />
<glyph unicode="&#x133;" horiz-adv-x="269" d="M58 487h25v-487h-25v487zM57 636h28v-32h-28v32zM191 487h25v-595q0 -55 -24.5 -75.5t-68.5 -20.5h-4v22h4q43 0 55.5 21t12.5 62v586zM191 636h28v-32h-28v32z" />
<glyph unicode="&#x134;" horiz-adv-x="309" d="M239 137q0 -66 -40 -104.5t-117 -38.5q-25 0 -49.5 6t-38.5 15l12 22q17 -11 39 -15t40 -4t40 4t42 17t33.5 37.5t13.5 64.5v556h25v-560zM228 818l-107 -78l-11 10l107 94h24l104 -92l-12 -11z" />
<glyph unicode="&#x135;" horiz-adv-x="180" d="M85 487h25v-595q0 -55 -24.5 -75.5t-68.5 -20.5h-4v22h4q43 0 55.5 21t12.5 62v586zM98 649l-107 -98l-11 10l107 114h24l104 -112l-12 -11z" />
<glyph unicode="&#x136;" horiz-adv-x="388" d="M78 243l246 453h29l-149 -273l181 -423h-30l-168 394l-111 -203v-191h-25v696h25v-453h2zM203 -158h-18l17 82h-9v36h36v-36z" />
<glyph unicode="&#x137;" horiz-adv-x="332" d="M67 173l202 313h29l-114 -175l143 -311h-29l-130 286l-101 -155v-131h-25v727h25v-554zM171 -178h-18l17 82h-9v36h36v-36z" />
<glyph unicode="&#x138;" horiz-adv-x="332" d="M67 173l203 313h28l-114 -175l143 -311h-29l-130 286l-101 -155v-131h-25v486h25v-313z" />
<glyph unicode="&#x139;" horiz-adv-x="329" d="M53 696h25v-672h241v-24h-266v696zM53 745l120 102l25 -26l-134 -88z" />
<glyph unicode="&#x13a;" horiz-adv-x="148" d="M73 108q0 -41 14.5 -67t55.5 -26h12v-22h-14q-44 0 -68.5 23.5t-24.5 82.5v627h25v-618zM47 765l120 102l25 -26l-134 -88z" />
<glyph unicode="&#x13b;" horiz-adv-x="329" d="M53 696h25v-672h241v-24h-266v696zM173 -178h-18l17 82h-9v36h36v-36z" />
<glyph unicode="&#x13c;" horiz-adv-x="148" d="M73 108q0 -41 14.5 -67t55.5 -26h12v-22h-14q-44 0 -68.5 23.5t-24.5 82.5v627h25v-618zM85 -178h-18l17 82h-9v36h36v-36z" />
<glyph unicode="&#x13d;" horiz-adv-x="329" d="M53 696h25v-672h241v-24h-266v696zM206 578h-18l17 82h-9v36h36v-36z" />
<glyph unicode="&#x13e;" horiz-adv-x="188" d="M152 608h-18l17 82h-9v36h36v-36zM73 108q0 -41 14.5 -67t55.5 -26h12v-22h-14q-44 0 -68.5 23.5t-24.5 82.5v627h25v-618z" />
<glyph unicode="&#x13f;" horiz-adv-x="329" d="M53 696h25v-672h241v-24h-266v696zM219 365h28v-32h-28v32z" />
<glyph unicode="&#x140;" horiz-adv-x="227" d="M163 385h28v-32h-28v32zM73 108q0 -41 14.5 -67t55.5 -26h12v-22h-14q-44 0 -68.5 23.5t-24.5 82.5v627h25v-618z" />
<glyph unicode="&#x141;" horiz-adv-x="367" d="M91 277l-81 -46l-10 17l91 52v396h25v-381l122 70l10 -17l-132 -76v-268h241v-24h-266v277z" />
<glyph unicode="&#x142;" horiz-adv-x="221" d="M120 352l91 52l10 -17l-101 -58v-221q0 -41 14.5 -67t55.5 -26h12v-22h-14q-44 0 -68.5 23.5t-24.5 82.5v216l-85 -48l-10 17l95 54v388h25v-374z" />
<glyph unicode="&#x143;" horiz-adv-x="422" d="M75 627v-627h-25v696h24l271 -627h3v627h24v-696h-24l-271 627h-2zM177 745l120 102l25 -26l-134 -88z" />
<glyph unicode="&#x144;" horiz-adv-x="353" d="M72 430q17 31 47 48t65 17q37 0 61.5 -11t38 -29t19 -42.5t5.5 -51.5v-361h-26v351q0 24 -4 46t-15 38t-30.5 25.5t-49.5 9.5q-28 0 -49 -11.5t-35.5 -29.5t-21.5 -41t-7 -46v-342h-25v487h25v-57h2zM140 562l66 143l33 -13l-84 -136z" />
<glyph unicode="&#x145;" horiz-adv-x="422" d="M75 627v-627h-25v696h24l271 -627h3v627h24v-696h-24l-271 627h-2zM205 -138h-18l17 82h-9v36h36v-36z" />
<glyph unicode="&#x146;" horiz-adv-x="353" d="M72 430q17 31 47 48t65 17q37 0 61.5 -11t38 -29t19 -42.5t5.5 -51.5v-361h-26v351q0 24 -4 46t-15 38t-30.5 25.5t-49.5 9.5q-28 0 -49 -11.5t-35.5 -29.5t-21.5 -41t-7 -46v-342h-25v487h25v-57h2zM168 -178h-18l17 82h-9v36h36v-36z" />
<glyph unicode="&#x147;" horiz-adv-x="422" d="M75 627v-627h-25v696h24l271 -627h3v627h24v-696h-24l-271 627h-2zM320 841l12 -11l-104 -92h-24l-107 94l11 10l107 -78z" />
<glyph unicode="&#x148;" horiz-adv-x="353" d="M72 430q17 31 47 48t65 17q37 0 61.5 -11t38 -29t19 -42.5t5.5 -51.5v-361h-26v351q0 24 -4 46t-15 38t-30.5 25.5t-49.5 9.5q-28 0 -49 -11.5t-35.5 -29.5t-21.5 -41t-7 -46v-342h-25v487h25v-57h2zM276 674l12 -11l-104 -112h-24l-107 114l11 10l107 -98z" />
<glyph unicode="&#x149;" horiz-adv-x="380" d="M99 430q17 31 47 48t65 17q37 0 61.5 -11t38 -29t19 -42.5t5.5 -51.5v-361h-26v351q0 24 -4 46t-15 38t-30.5 25.5t-49.5 9.5q-28 0 -49 -11.5t-35.5 -29.5t-21.5 -41t-7 -46v-342h-25v487h25v-57h2zM43 509h-18l17 82h-9v36h36v-36z" />
<glyph unicode="&#x14a;" horiz-adv-x="422" d="M75 627v-627h-25v696h24l271 -627h3v627h24v-751q0 -53 -20 -75t-50 -22q-17 0 -27 3t-21 9l10 20q9 -5 17 -7t19 -2q27 0 36.5 22t9.5 50v61l-269 623h-2z" />
<glyph unicode="&#x14b;" horiz-adv-x="353" d="M72 430q17 31 47 48t65 17q37 0 61.5 -11t38 -29t19 -42.5t5.5 -51.5v-416q0 -53 -20 -75t-50 -22q-17 0 -27 3t-21 9l10 20q9 -5 17 -7t19 -2q27 0 36.5 22t9.5 50v408q0 24 -4 46t-15 38t-30.5 25.5t-49.5 9.5q-28 0 -49 -11.5t-35.5 -29.5t-21.5 -41t-7 -46v-342h-25 v487h25v-57h2z" />
<glyph unicode="&#x14c;" horiz-adv-x="398" d="M328 558q0 60 -37.5 90.5t-91.5 30.5q-56 0 -92.5 -33t-36.5 -93v-416q0 -61 36.5 -91t92.5 -30q62 0 95.5 32t33.5 93v417zM199 -7q-32 0 -60 8.5t-49 26.5t-33 45t-12 65v416q0 37 12 65t33 46.5t49 27.5t60 9t60 -8.5t49 -26t33 -44.5t12 -64v-419q0 -38 -12 -65.5 t-33 -45.5t-49 -27t-60 -9zM105 774h191v-24h-191v24z" />
<glyph unicode="&#x14d;" horiz-adv-x="343" d="M172 495q55 0 82 -21t39 -51q4 -15 6.5 -36t4 -45t1.5 -49v-49v-21q0 -26 -0.5 -54t-3.5 -60q-3 -33 -15.5 -55t-30.5 -35.5t-39.5 -19.5t-43.5 -6q-60 0 -89 22.5t-40 61.5q-3 12 -4.5 31t-2.5 41t-1 45.5v43.5q0 27 0.5 55t1.5 53t3.5 45t6.5 32q12 33 42.5 52.5 t82.5 19.5zM171 471q-14 0 -28.5 -2.5t-27.5 -8.5t-24 -17t-18 -28q-9 -23 -10 -70t-2 -108v-18q0 -56 2 -89.5t8 -52.5q10 -29 34 -45t66 -16q34 0 62 17t39 55q5 16 6.5 55t1.5 86q0 23 -0.5 50t-1.5 52t-3 45t-5 31q-10 33 -37 48.5t-62 15.5zM76 614h191v-24h-191v24z " />
<glyph unicode="&#x14e;" horiz-adv-x="398" d="M328 558q0 60 -37.5 90.5t-91.5 30.5q-56 0 -92.5 -33t-36.5 -93v-416q0 -61 36.5 -91t92.5 -30q62 0 95.5 32t33.5 93v417zM199 -7q-32 0 -60 8.5t-49 26.5t-33 45t-12 65v416q0 37 12 65t33 46.5t49 27.5t60 9t60 -8.5t49 -26t33 -44.5t12 -64v-419q0 -38 -12 -65.5 t-33 -45.5t-49 -27t-60 -9zM199 753q32 0 58 20.5t34 62.5h23q-3 -19 -11 -38t-22 -34.5t-34.5 -25t-47.5 -9.5t-47 10t-33.5 25.5t-21.5 34.5t-11 37h22q7 -38 33 -60.5t58 -22.5z" />
<glyph unicode="&#x14f;" horiz-adv-x="343" d="M172 495q55 0 82 -21t39 -51q4 -15 6.5 -36t4 -45t1.5 -49v-49v-21q0 -26 -0.5 -54t-3.5 -60q-3 -33 -15.5 -55t-30.5 -35.5t-39.5 -19.5t-43.5 -6q-60 0 -89 22.5t-40 61.5q-3 12 -4.5 31t-2.5 41t-1 45.5v43.5q0 27 0.5 55t1.5 53t3.5 45t6.5 32q12 33 42.5 52.5 t82.5 19.5zM171 471q-14 0 -28.5 -2.5t-27.5 -8.5t-24 -17t-18 -28q-9 -23 -10 -70t-2 -108v-18q0 -56 2 -89.5t8 -52.5q10 -29 34 -45t66 -16q34 0 62 17t39 55q5 16 6.5 55t1.5 86q0 23 -0.5 50t-1.5 52t-3 45t-5 31q-10 33 -37 48.5t-62 15.5zM171 576q32 0 58 20.5 t34 62.5h23q-3 -19 -11 -38t-22 -34.5t-34.5 -25t-47.5 -9.5t-47 10t-33.5 25.5t-21.5 34.5t-11 37h22q7 -38 33 -60.5t58 -22.5z" />
<glyph unicode="&#x150;" horiz-adv-x="398" d="M328 558q0 60 -37.5 90.5t-91.5 30.5q-56 0 -92.5 -33t-36.5 -93v-416q0 -61 36.5 -91t92.5 -30q62 0 95.5 32t33.5 93v417zM199 -7q-32 0 -60 8.5t-49 26.5t-33 45t-12 65v416q0 37 12 65t33 46.5t49 27.5t60 9t60 -8.5t49 -26t33 -44.5t12 -64v-419q0 -38 -12 -65.5 t-33 -45.5t-49 -27t-60 -9zM129 745l120 102l25 -26l-134 -88zM219 745l120 102l25 -26l-134 -88z" />
<glyph unicode="&#x151;" horiz-adv-x="343" d="M172 495q55 0 82 -21t39 -51q4 -15 6.5 -36t4 -45t1.5 -49v-49v-21q0 -26 -0.5 -54t-3.5 -60q-3 -33 -15.5 -55t-30.5 -35.5t-39.5 -19.5t-43.5 -6q-60 0 -89 22.5t-40 61.5q-3 12 -4.5 31t-2.5 41t-1 45.5v43.5q0 27 0.5 55t1.5 53t3.5 45t6.5 32q12 33 42.5 52.5 t82.5 19.5zM171 471q-14 0 -28.5 -2.5t-27.5 -8.5t-24 -17t-18 -28q-9 -23 -10 -70t-2 -108v-18q0 -56 2 -89.5t8 -52.5q10 -29 34 -45t66 -16q34 0 62 17t39 55q5 16 6.5 55t1.5 86q0 23 -0.5 50t-1.5 52t-3 45t-5 31q-10 33 -37 48.5t-62 15.5zM122 562l66 143l33 -13 l-84 -136zM200 562l66 143l33 -13l-84 -136z" />
<glyph unicode="&#x152;" horiz-adv-x="579" d="M268 696h276v-23h-251v-302h223v-23h-223v-324h251v-24h-273q-14 -4 -33.5 -5.5t-38.5 -1.5q-32 0 -60 8.5t-49 26.5t-33 45t-12 65v416q0 37 12 65t33 46.5t49 27.5t60 9q19 0 36 -1t33 -6v1zM199 679q-56 0 -92.5 -33t-36.5 -93v-416q0 -61 36.5 -91t92.5 -30 q20 0 37.5 2t31.5 7v644q-15 7 -32 8.5t-37 1.5z" />
<glyph unicode="&#x153;" horiz-adv-x="584" d="M421 495q59 0 93 -31.5t34 -91.5v-127h-237v-26q0 -18 0.5 -39t1.5 -40.5t3 -36t5 -25.5q8 -25 30.5 -43.5t63.5 -18.5q26 0 45.5 8t32 21.5t19.5 31t9 37.5l24 -5q-5 -56 -41 -86t-86 -30q-29 0 -50.5 6.5t-36.5 18t-24 26t-13 29.5q-15 -44 -50 -62t-72 -18 q-60 0 -89 22.5t-40 61.5q-3 12 -4.5 31t-2.5 41t-1 45.5v43.5q0 27 0.5 55t1.5 53t3.5 45t6.5 32q12 33 42.5 52.5t82.5 19.5q55 0 83 -22.5t40 -52.5h3q12 33 41.5 54t81.5 21zM171 471q-14 0 -28.5 -2.5t-27.5 -8.5t-24 -17t-18 -28q-9 -23 -10 -70t-2 -108v-18 q0 -56 2 -89.5t8 -52.5q10 -29 34 -45t66 -16q34 0 62 17t39 55q5 16 6.5 55t1.5 86q0 23 -0.5 50t-1.5 52t-3 45t-5 31q-10 33 -37 48.5t-62 15.5zM323 414q-8 -20 -9.5 -57.5t-2.5 -88.5h211v103q0 43 -24 71.5t-78 28.5q-28 0 -55.5 -11.5t-41.5 -45.5z" />
<glyph unicode="&#x154;" horiz-adv-x="388" d="M179 696q52 0 87 -12.5t55 -36t28.5 -56.5t8.5 -74q0 -75 -27 -122t-90 -62q12 -37 26.5 -80t29.5 -86.5t30 -86.5t27 -80h-29l-108 328q-10 -1 -20 -1.5t-21 -0.5h-99v-326h-25v696h127zM77 674v-326h96q82 0 121.5 38t39.5 130q0 75 -35.5 116.5t-123.5 41.5h-98z M134 745l120 102l25 -26l-134 -88z" />
<glyph unicode="&#x155;" horiz-adv-x="223" d="M220 466q-6 2 -12.5 2h-11.5q-54 0 -83.5 -41t-29.5 -109v-318h-25v487h25v-72h3q14 39 42 59.5t66 20.5h13t13 -2v-27zM104 562l66 143l33 -13l-84 -136z" />
<glyph unicode="&#x156;" horiz-adv-x="388" d="M179 696q52 0 87 -12.5t55 -36t28.5 -56.5t8.5 -74q0 -75 -27 -122t-90 -62q12 -37 26.5 -80t29.5 -86.5t30 -86.5t27 -80h-29l-108 328q-10 -1 -20 -1.5t-21 -0.5h-99v-326h-25v696h127zM77 674v-326h96q82 0 121.5 38t39.5 130q0 75 -35.5 116.5t-123.5 41.5h-98z M185 -158h-18l17 82h-9v36h36v-36z" />
<glyph unicode="&#x157;" horiz-adv-x="223" d="M220 466q-6 2 -12.5 2h-11.5q-54 0 -83.5 -41t-29.5 -109v-318h-25v487h25v-72h3q14 39 42 59.5t66 20.5h13t13 -2v-27zM63 -178h-18l17 82h-9v36h36v-36z" />
<glyph unicode="&#x158;" horiz-adv-x="388" d="M179 696q52 0 87 -12.5t55 -36t28.5 -56.5t8.5 -74q0 -75 -27 -122t-90 -62q12 -37 26.5 -80t29.5 -86.5t30 -86.5t27 -80h-29l-108 328q-10 -1 -20 -1.5t-21 -0.5h-99v-326h-25v696h127zM77 674v-326h96q82 0 121.5 38t39.5 130q0 75 -35.5 116.5t-123.5 41.5h-98z M279 841l12 -11l-104 -92h-24l-107 94l11 10l107 -78z" />
<glyph unicode="&#x159;" horiz-adv-x="223" d="M220 466q-6 2 -12.5 2h-11.5q-54 0 -83.5 -41t-29.5 -109v-318h-25v487h25v-72h3q14 39 42 59.5t66 20.5h13t13 -2v-27zM219 674l12 -11l-104 -112h-24l-107 114l11 10l107 -98z" />
<glyph unicode="&#x15a;" horiz-adv-x="370" d="M340 178q0 -42 -7.5 -76t-25 -58.5t-47 -37.5t-73.5 -13q-42 0 -70.5 11t-47 30.5t-27 45.5t-9.5 57l27 5q0 -25 7 -47.5t22 -40t39 -27.5t59 -10q41 0 65.5 13t38 35t18 51t4.5 61q0 37 -3.5 62t-16 44.5t-37 35.5t-67.5 36q-51 23 -80.5 43t-45 41t-20 43.5t-4.5 49.5 q0 37 8.5 68.5t27 54t47 35t68.5 12.5q44 0 73 -12.5t46 -32.5t24 -45t7 -50l-26 -6q0 24 -6.5 46t-21 39t-38.5 27t-59 10q-39 0 -63 -13.5t-37.5 -35t-18 -47t-4.5 -49.5q0 -27 6 -48t22 -39t44.5 -35.5t74.5 -38.5q46 -20 71.5 -39t38 -41.5t15 -50t2.5 -63.5zM142 745 l120 102l25 -26l-134 -88z" />
<glyph unicode="&#x15b;" horiz-adv-x="314" d="M154 -7q-60 0 -95 29.5t-37 90.5l26 5q0 -48 28.5 -75.5t78.5 -26.5q58 0 81 30t23 77q0 24 -3.5 41.5t-15 31t-31.5 25.5t-53 24q-40 15 -64.5 30t-38 30.5t-18.5 32.5t-5 36q0 53 31 87t99 34q57 0 93 -30.5t36 -90.5l-26 -5q0 48 -28.5 75t-76.5 27q-30 0 -49 -8.5 t-30.5 -22t-16 -31t-4.5 -35.5t4.5 -32t17 -27t35.5 -25t59 -25q38 -14 60.5 -29t34 -32t14.5 -36.5t3 -43.5q0 -28 -7 -52t-22.5 -41.5t-40.5 -27.5t-62 -10zM141 562l66 143l33 -13l-84 -136z" />
<glyph unicode="&#x15c;" horiz-adv-x="370" d="M340 178q0 -42 -7.5 -76t-25 -58.5t-47 -37.5t-73.5 -13q-42 0 -70.5 11t-47 30.5t-27 45.5t-9.5 57l27 5q0 -25 7 -47.5t22 -40t39 -27.5t59 -10q41 0 65.5 13t38 35t18 51t4.5 61q0 37 -3.5 62t-16 44.5t-37 35.5t-67.5 36q-51 23 -80.5 43t-45 41t-20 43.5t-4.5 49.5 q0 37 8.5 68.5t27 54t47 35t68.5 12.5q44 0 73 -12.5t46 -32.5t24 -45t7 -50l-26 -6q0 24 -6.5 46t-21 39t-38.5 27t-59 10q-39 0 -63 -13.5t-37.5 -35t-18 -47t-4.5 -49.5q0 -27 6 -48t22 -39t44.5 -35.5t74.5 -38.5q46 -20 71.5 -39t38 -41.5t15 -50t2.5 -63.5zM191 816 l-107 -78l-11 10l107 94h24l104 -92l-12 -11z" />
<glyph unicode="&#x15d;" horiz-adv-x="314" d="M154 -7q-60 0 -95 29.5t-37 90.5l26 5q0 -48 28.5 -75.5t78.5 -26.5q58 0 81 30t23 77q0 24 -3.5 41.5t-15 31t-31.5 25.5t-53 24q-40 15 -64.5 30t-38 30.5t-18.5 32.5t-5 36q0 53 31 87t99 34q57 0 93 -30.5t36 -90.5l-26 -5q0 48 -28.5 75t-76.5 27q-30 0 -49 -8.5 t-30.5 -22t-16 -31t-4.5 -35.5t4.5 -32t17 -27t35.5 -25t59 -25q38 -14 60.5 -29t34 -32t14.5 -36.5t3 -43.5q0 -28 -7 -52t-22.5 -41.5t-40.5 -27.5t-62 -10zM157 649l-107 -98l-11 10l107 114h24l104 -112l-12 -11z" />
<glyph unicode="&#x15e;" horiz-adv-x="370" d="M340 178q0 -41 -7 -74.5t-24 -57.5t-44.5 -38t-69.5 -15l-15 -60q24 -2 39.5 -9t24.5 -17.5t13 -22t4 -21.5q0 -26 -18 -48t-56 -22q-19 0 -35.5 3t-36.5 13l9 19q16 -8 31 -10.5t27 -2.5q24 0 39 12t15 35q0 20 -16.5 34.5t-49.5 16.5l-16 11l19 70q-38 2 -64 13.5 t-42.5 30.5t-24.5 44t-9 55l27 5q0 -25 7 -47.5t22 -40t39 -27.5t59 -10q41 0 65.5 13t38 35t18 51t4.5 61q0 37 -3.5 62t-16 44.5t-37 35.5t-67.5 36q-51 23 -80.5 43t-45 41t-20 43.5t-4.5 49.5q0 37 8.5 68.5t27 54t47 35t68.5 12.5q44 0 73 -12.5t46 -32.5t24 -45t7 -50 l-26 -6q0 24 -6.5 46t-21 39t-38.5 27t-59 10q-39 0 -63 -13.5t-37.5 -35t-18 -47t-4.5 -49.5q0 -27 6 -48t22 -39t44.5 -35.5t74.5 -38.5q46 -20 71.5 -39t38 -41.5t15 -50t2.5 -63.5z" />
<glyph unicode="&#x15f;" horiz-adv-x="314" d="M286 124q0 -54 -26 -89.5t-90 -40.5l-15 -61q24 -2 39.5 -9t24.5 -17.5t13 -22t4 -21.5q0 -26 -18 -48t-56 -22q-19 0 -35.5 3t-36.5 13l9 19q16 -8 31 -10.5t27 -2.5q24 0 39 12t15 35q0 20 -16.5 34.5t-49.5 16.5l-16 11l18 69q-57 2 -90 31t-35 89l26 5 q0 -48 28.5 -75.5t78.5 -26.5q58 0 81 30t23 77q0 24 -3.5 41.5t-15 31t-31.5 25.5t-53 24q-40 15 -64.5 30t-38 30.5t-18.5 32.5t-5 36q0 53 31 87t99 34q57 0 93 -30.5t36 -90.5l-26 -5q0 48 -28.5 75t-76.5 27q-30 0 -49 -8.5t-30.5 -22t-16 -31t-4.5 -35.5t4.5 -32 t17 -27t35.5 -25t59 -25q38 -14 60.5 -29t34 -32t14.5 -36.5t3 -43.5z" />
<glyph unicode="&#x160;" horiz-adv-x="370" d="M340 178q0 -42 -7.5 -76t-25 -58.5t-47 -37.5t-73.5 -13q-42 0 -70.5 11t-47 30.5t-27 45.5t-9.5 57l27 5q0 -25 7 -47.5t22 -40t39 -27.5t59 -10q41 0 65.5 13t38 35t18 51t4.5 61q0 37 -3.5 62t-16 44.5t-37 35.5t-67.5 36q-51 23 -80.5 43t-45 41t-20 43.5t-4.5 49.5 q0 37 8.5 68.5t27 54t47 35t68.5 12.5q44 0 73 -12.5t46 -32.5t24 -45t7 -50l-26 -6q0 24 -6.5 46t-21 39t-38.5 27t-59 10q-39 0 -63 -13.5t-37.5 -35t-18 -47t-4.5 -49.5q0 -27 6 -48t22 -39t44.5 -35.5t74.5 -38.5q46 -20 71.5 -39t38 -41.5t15 -50t2.5 -63.5zM286 841 l12 -11l-104 -92h-24l-107 94l11 10l107 -78z" />
<glyph unicode="&#x161;" horiz-adv-x="314" d="M154 -7q-60 0 -95 29.5t-37 90.5l26 5q0 -48 28.5 -75.5t78.5 -26.5q58 0 81 30t23 77q0 24 -3.5 41.5t-15 31t-31.5 25.5t-53 24q-40 15 -64.5 30t-38 30.5t-18.5 32.5t-5 36q0 53 31 87t99 34q57 0 93 -30.5t36 -90.5l-26 -5q0 48 -28.5 75t-76.5 27q-30 0 -49 -8.5 t-30.5 -22t-16 -31t-4.5 -35.5t4.5 -32t17 -27t35.5 -25t59 -25q38 -14 60.5 -29t34 -32t14.5 -36.5t3 -43.5q0 -28 -7 -52t-22.5 -41.5t-40.5 -27.5t-62 -10zM266 674l12 -11l-104 -112h-24l-107 114l11 10l107 -98z" />
<glyph unicode="&#x162;" horiz-adv-x="319" d="M171 0h-25v673h-140v23h304v-23h-139v-673zM151 -178h-18l17 82h-9v36h36v-36z" />
<glyph unicode="&#x163;" horiz-adv-x="213" d="M22 487h58v140h25v-140h79v-22h-79v-359q0 -36 17 -60t61 -24h9v-22h-9q-22 0 -40.5 6t-32.5 19t-22 34t-8 52v354h-58v22zM102 -178h-18l17 82h-9v36h36v-36z" />
<glyph unicode="&#x164;" horiz-adv-x="319" d="M171 0h-25v673h-140v23h304v-23h-139v-673zM264 841l12 -11l-104 -92h-24l-107 94l11 10l107 -78z" />
<glyph unicode="&#x165;" horiz-adv-x="229" d="M199 553h-18l17 82h-9v36h36v-36zM22 487h58v140h25v-140h79v-22h-79v-359q0 -36 17 -60t61 -24h9v-22h-9q-22 0 -40.5 6t-32.5 19t-22 34t-8 52v354h-58v22z" />
<glyph unicode="&#x166;" horiz-adv-x="319" d="M171 403h109v-20h-109v-383h-25v383h-110v20h110v270h-140v23h304v-23h-139v-270z" />
<glyph unicode="&#x167;" horiz-adv-x="213" d="M22 487h58v140h25v-140h79v-22h-79v-134h79v-22h-79v-203q0 -36 17 -60t61 -24h9v-22h-9q-22 0 -40.5 6t-32.5 19t-22 34t-8 52v198h-58v22h58v134h-58v22z" />
<glyph unicode="&#x168;" horiz-adv-x="380" d="M343 695v-555q0 -38 -12 -65.5t-33 -45.5t-49 -27t-60 -9t-60 8.5t-49 26.5t-33 45t-12 65v557h25v-558q0 -61 36.5 -91t92.5 -30q62 0 95.5 32t33.5 93v554h25zM246 741q-15 0 -29.5 6t-29 13t-28 13t-27.5 6q-12 0 -24 -9.5t-22 -24.5l-16 10q25 47 63 47q16 0 30 -6 t27.5 -12.5t28 -12.5t30.5 -6q32 0 50 38l16 -7q-9 -30 -29 -42.5t-40 -12.5z" />
<glyph unicode="&#x169;" horiz-adv-x="353" d="M282 57q-17 -31 -47 -48t-65 -17q-38 0 -62 11t-37.5 29t-19 42.5t-5.5 51.5v361h26v-351q0 -24 4 -46t15 -38t30.5 -25.5t49.5 -9.5q28 0 49 11.5t35 29.5t21.5 41t7.5 46v342h25v-487h-25v57h-2zM234 571q-15 0 -29.5 6t-29 13t-28 13t-27.5 6q-12 0 -24 -9.5 t-22 -24.5l-16 10q25 47 63 47q16 0 30 -6t27.5 -12.5t28 -12.5t30.5 -6q32 0 50 38l16 -7q-9 -30 -29 -42.5t-40 -12.5z" />
<glyph unicode="&#x16a;" horiz-adv-x="380" d="M343 695v-555q0 -38 -12 -65.5t-33 -45.5t-49 -27t-60 -9t-60 8.5t-49 26.5t-33 45t-12 65v557h25v-558q0 -61 36.5 -91t92.5 -30q62 0 95.5 32t33.5 93v554h25zM97 774h191v-24h-191v24z" />
<glyph unicode="&#x16b;" horiz-adv-x="353" d="M282 57q-17 -31 -47 -48t-65 -17q-38 0 -62 11t-37.5 29t-19 42.5t-5.5 51.5v361h26v-351q0 -24 4 -46t15 -38t30.5 -25.5t49.5 -9.5q28 0 49 11.5t35 29.5t21.5 41t7.5 46v342h25v-487h-25v57h-2zM83 614h191v-24h-191v24z" />
<glyph unicode="&#x16c;" horiz-adv-x="380" d="M343 695v-555q0 -38 -12 -65.5t-33 -45.5t-49 -27t-60 -9t-60 8.5t-49 26.5t-33 45t-12 65v557h25v-558q0 -61 36.5 -91t92.5 -30q62 0 95.5 32t33.5 93v554h25zM188 753q32 0 58 20.5t34 62.5h23q-3 -19 -11 -38t-22 -34.5t-34.5 -25t-47.5 -9.5t-47 10t-33.5 25.5 t-21.5 34.5t-11 37h22q7 -38 33 -60.5t58 -22.5z" />
<glyph unicode="&#x16d;" horiz-adv-x="353" d="M282 57q-17 -31 -47 -48t-65 -17q-38 0 -62 11t-37.5 29t-19 42.5t-5.5 51.5v361h26v-351q0 -24 4 -46t15 -38t30.5 -25.5t49.5 -9.5q28 0 49 11.5t35 29.5t21.5 41t7.5 46v342h25v-487h-25v57h-2zM179 576q32 0 58 20.5t34 62.5h23q-3 -19 -11 -38t-22 -34.5t-34.5 -25 t-47.5 -9.5t-47 10t-33.5 25.5t-21.5 34.5t-11 37h22q7 -38 33 -60.5t58 -22.5z" />
<glyph unicode="&#x16e;" horiz-adv-x="380" d="M343 695v-555q0 -38 -12 -65.5t-33 -45.5t-49 -27t-60 -9t-60 8.5t-49 26.5t-33 45t-12 65v557h25v-558q0 -61 36.5 -91t92.5 -30q62 0 95.5 32t33.5 93v554h25zM193 716q-30 0 -52 22.5t-22 54.5q0 34 22 56t52 22q32 0 54 -22t22 -56q0 -32 -22 -54.5t-54 -22.5z M193 852q-22 0 -38.5 -17t-16.5 -42q0 -23 16.5 -40.5t38.5 -17.5q23 0 40 17.5t17 40.5q0 25 -17 42t-40 17z" />
<glyph unicode="&#x16f;" horiz-adv-x="353" d="M282 57q-17 -31 -47 -48t-65 -17q-38 0 -62 11t-37.5 29t-19 42.5t-5.5 51.5v361h26v-351q0 -24 4 -46t15 -38t30.5 -25.5t49.5 -9.5q28 0 49 11.5t35 29.5t21.5 41t7.5 46v342h25v-487h-25v57h-2zM180 554q-30 0 -52 22.5t-22 54.5q0 34 22 56t52 22q32 0 54 -22t22 -56 q0 -32 -22 -54.5t-54 -22.5zM180 690q-22 0 -38.5 -17t-16.5 -42q0 -23 16.5 -40.5t38.5 -17.5q23 0 40 17.5t17 40.5q0 25 -17 42t-40 17z" />
<glyph unicode="&#x170;" horiz-adv-x="380" d="M343 695v-555q0 -38 -12 -65.5t-33 -45.5t-49 -27t-60 -9t-60 8.5t-49 26.5t-33 45t-12 65v557h25v-558q0 -61 36.5 -91t92.5 -30q62 0 95.5 32t33.5 93v554h25zM125 745l120 102l25 -26l-134 -88zM215 745l120 102l25 -26l-134 -88z" />
<glyph unicode="&#x171;" horiz-adv-x="353" d="M282 57q-17 -31 -47 -48t-65 -17q-38 0 -62 11t-37.5 29t-19 42.5t-5.5 51.5v361h26v-351q0 -24 4 -46t15 -38t30.5 -25.5t49.5 -9.5q28 0 49 11.5t35 29.5t21.5 41t7.5 46v342h25v-487h-25v57h-2zM122 562l66 143l33 -13l-84 -136zM200 562l66 143l33 -13l-84 -136z" />
<glyph unicode="&#x172;" horiz-adv-x="380" d="M343 695v-555q0 -35 -10.5 -61t-28.5 -44t-42.5 -28t-52.5 -13q-14 -20 -25 -43.5t-11 -40.5q0 -30 13 -43.5t32 -13.5q10 0 23 3.5t25 12.5l8 -21q-10 -8 -25.5 -13.5t-31.5 -5.5q-32 0 -50 22.5t-18 53.5q0 17 7 41t25 47q-30 1 -57 10t-46.5 27t-31 45t-11.5 63v557 h25v-558q0 -61 36.5 -91t92.5 -30q62 0 95.5 32t33.5 93v554h25z" />
<glyph unicode="&#x173;" horiz-adv-x="353" d="M245 -94q0 19 9.5 45t29.5 50v56h-2q-17 -31 -47 -48t-65 -17q-38 0 -62 11t-37.5 29t-19 42.5t-5.5 51.5v361h26v-351q0 -24 4 -46t15 -38t30.5 -25.5t49.5 -9.5q28 0 49 11.5t35 29.5t21.5 41t7.5 46v342h25v-487q-17 -20 -28.5 -46.5t-11.5 -43.5q0 -30 13 -43.5 t32 -13.5q10 0 23 3.5t25 12.5l8 -21q-10 -8 -25.5 -13.5t-31.5 -5.5q-32 0 -50 23t-18 54z" />
<glyph unicode="&#x174;" horiz-adv-x="582" d="M290 632l-35 -187l-83 -445h-39l-125 696h24l78 -442l41 -235h2l43 233l83 444h25l84 -451l42 -226h2l39 225l80 452h24l-125 -696h-39l-84 446l-35 186h-2zM294 816l-107 -78l-11 10l107 94h24l104 -92l-12 -11z" />
<glyph unicode="&#x175;" horiz-adv-x="512" d="M258 436l-103 -435h-27l-117 486h26l104 -439h2l103 439h27l103 -439h2l104 439h26l-117 -486h-27l-104 435h-2zM261 649l-107 -98l-11 10l107 114h24l104 -112l-12 -11z" />
<glyph unicode="&#x176;" horiz-adv-x="337" d="M167 326l131 370h27l-146 -403v-293h-25v293l-146 403h25l132 -370h2zM167 816l-107 -78l-11 10l107 94h24l104 -92l-12 -11z" />
<glyph unicode="&#x177;" horiz-adv-x="304" d="M151 46l122 441h26l-166 -595q-10 -39 -34.5 -66t-68.5 -27h-7v23h7q33 0 52.5 23.5t29.5 63.5l24 96l-129 482h27l115 -441h2zM156 649l-107 -98l-11 10l107 114h24l104 -112l-12 -11z" />
<glyph unicode="&#x178;" horiz-adv-x="337" d="M167 326l131 370h27l-146 -403v-293h-25v293l-146 403h25l132 -370h2zM82 773h28v-32h-28v32zM224 773h28v-32h-28v32z" />
<glyph unicode="&#x179;" horiz-adv-x="296" d="M267 24v-24h-259v23l249 650h-225v23h250v-22l-249 -650h234zM110 745l120 102l25 -26l-134 -88z" />
<glyph unicode="&#x17a;" horiz-adv-x="269" d="M10 22l221 442h-198v22h226v-21l-221 -443h214v-22h-242v22zM128 562l66 143l33 -13l-84 -136z" />
<glyph unicode="&#x17b;" horiz-adv-x="296" d="M267 24v-24h-259v23l249 650h-225v23h250v-22l-249 -650h234zM145 785h28v-32h-28v32z" />
<glyph unicode="&#x17c;" horiz-adv-x="269" d="M10 22l221 442h-198v22h226v-21l-221 -443h214v-22h-242v22zM141 615h28v-32h-28v32z" />
<glyph unicode="&#x17d;" horiz-adv-x="296" d="M267 24v-24h-259v23l249 650h-225v23h250v-22l-249 -650h234zM266 841l12 -11l-104 -92h-24l-107 94l11 10l107 -78z" />
<glyph unicode="&#x17e;" horiz-adv-x="269" d="M10 22l221 442h-198v22h226v-21l-221 -443h214v-22h-242v22zM252 674l12 -11l-104 -112h-24l-107 114l11 10l107 -98z" />
<glyph unicode="&#x192;" horiz-adv-x="340" d="M-13 -68q13 -3 29 -3q22 0 40 7t32 25t23.5 47.5t15.5 74.5l36 295h-81v23h83l17 146q10 79 40 117t90 38q17 0 40 -5l-7 -23q-18 5 -33 5q-17 0 -33.5 -5t-30.5 -20t-25 -41.5t-16 -69.5l-16 -142h97v-23h-100l-34 -292q-12 -95 -45 -138t-93 -43q-18 0 -36 3z" />
<glyph unicode="&#x1a0;" horiz-adv-x="416" d="M199 -7q-32 0 -60 8.5t-49 26.5t-33 45t-12 65v416q0 37 12 65t33 46.5t49 27.5t60 9q48 0 86.5 -19t55.5 -61h1q19 0 30.5 8.5t18 22.5t9 32.5t2.5 38.5v45h23v-50q0 -60 -18.5 -87.5t-58.5 -32.5q5 -20 5 -40v-419q0 -38 -12 -65.5t-33 -45.5t-49 -27t-60 -9zM328 558 q0 60 -37.5 90.5t-91.5 30.5q-56 0 -92.5 -33t-36.5 -93v-416q0 -61 36.5 -91t92.5 -30q62 0 95.5 32t33.5 93v417z" />
<glyph unicode="&#x1a1;" horiz-adv-x="365" d="M172 495q49 0 75 -16.5t40 -42.5h3q19 0 30.5 8.5t18 22.5t9 32.5t2.5 38.5v45h23v-50q0 -60 -19 -88t-59 -32q8 -31 9 -78t1 -91v-21q0 -26 -0.5 -54t-3.5 -60q-3 -33 -15.5 -55t-30.5 -35.5t-39.5 -19.5t-43.5 -6q-60 0 -89 22.5t-40 61.5q-3 12 -4.5 31t-2.5 41 t-1 45.5v43.5q0 27 0.5 55t1.5 53t3.5 45t6.5 32q12 33 42.5 52.5t82.5 19.5zM171 471q-14 0 -28.5 -2.5t-27.5 -8.5t-24 -17t-18 -28q-9 -23 -10 -70t-2 -108v-18q0 -56 2 -89.5t8 -52.5q10 -29 34 -45t66 -16q34 0 62 17t39 55q5 16 6.5 55t1.5 86q0 23 -0.5 50t-1.5 52 t-3 45t-5 31q-10 33 -37 48.5t-62 15.5z" />
<glyph unicode="&#x1af;" horiz-adv-x="422" d="M343 695v-73h8q19 0 30.5 8.5t18 22.5t9 32.5t2.5 38.5v45h23v-50q0 -65 -22 -92.5t-69 -27.5v-459q0 -38 -12 -65.5t-33 -45.5t-49 -27t-60 -9t-60 8.5t-49 26.5t-33 45t-12 65v557h25v-558q0 -61 36.5 -91t92.5 -30q62 0 95.5 32t33.5 93v554h25z" />
<glyph unicode="&#x1b0;" horiz-adv-x="392" d="M282 57q-17 -31 -47 -48t-65 -17q-38 0 -62 11t-37.5 29t-19 42.5t-5.5 51.5v361h26v-351q0 -24 4 -46t15 -38t30.5 -25.5t49.5 -9.5q28 0 49 11.5t35 29.5t21.5 41t7.5 46v342h25v-51h10q19 0 30.5 8.5t18 22.5t9 32.5t2.5 38.5v45h23v-50q0 -65 -22 -92.5t-70 -27.5h-1 v-413h-25v57h-2z" />
<glyph unicode="&#x1fc;" horiz-adv-x="622" d="M332 196h-213l-88 -196h-27l310 696h294v-23h-251v-302h223v-23h-223v-324h251v-24h-276v196zM130 219h202v452h-2zM404 745l120 102l25 -26l-134 -88z" />
<glyph unicode="&#x1fd;" horiz-adv-x="563" d="M403 -7q-41 0 -73.5 16t-48.5 49q-18 -26 -36.5 -39t-36 -18.5t-33.5 -6t-28 -0.5q-34 0 -57.5 11t-38 29.5t-21 43t-6.5 51.5q0 28 6.5 55.5t22.5 49.5t42.5 35.5t66.5 13.5h105v83q0 23 -5 42.5t-17 33.5t-32.5 22t-52.5 8q-39 0 -63 -17t-34 -42l-24 10q15 32 43.5 52 t79.5 20q45 0 75.5 -14t44.5 -49q17 32 49.5 47.5t71.5 15.5q59 0 96.5 -31.5t37.5 -91.5v-114h-244v-141q0 -20 7.5 -38t21 -32t33.5 -22.5t46 -8.5q51 0 77.5 29.5t30.5 68.5l24 -5q-5 -56 -42.5 -86t-87.5 -30zM166 258q-51 0 -84 -30t-33 -102q0 -21 5.5 -41t18 -35 t33 -24.5t50.5 -9.5q46 0 78.5 25t32.5 75v142h-101zM511 283v88q0 43 -28 71.5t-82 28.5q-51 0 -78.5 -27.5t-29.5 -72.5v-88h218zM283 562l66 143l33 -13l-84 -136z" />
<glyph unicode="&#x1fe;" horiz-adv-x="398" d="M199 -7q-37 0 -68.5 11.5t-52.5 34.5l-23 -54l-19 9l28 65q-19 33 -19 79v416q0 37 12 65t33 46.5t49 27.5t60 9q36 0 66.5 -10.5t52.5 -33.5l23 54l20 -9l-28 -65q20 -32 20 -79v-419q0 -38 -12 -65.5t-33 -45.5t-49 -27t-60 -9zM328 558q0 26 -8 48l-231 -541 q17 -25 45.5 -37t64.5 -12q62 0 95.5 32t33.5 93v417zM70 137q0 -13 2 -24.5t5 -21.5l229 540q-17 23 -45 35.5t-62 12.5q-56 0 -92.5 -33t-36.5 -93v-416zM168 745l120 102l25 -26l-134 -88z" />
<glyph unicode="&#x1ff;" horiz-adv-x="343" d="M172 495q33 0 55.5 -8t37.5 -22l18 37l20 -10l-22 -46q4 -5 6.5 -11t5.5 -12q4 -15 6.5 -36t4 -45t1.5 -49v-49v-21q0 -26 -0.5 -54t-3.5 -60q-3 -33 -15.5 -55t-30.5 -35.5t-39.5 -19.5t-43.5 -6q-35 0 -59 8t-39 22l-17 -34l-19 11l20 41q-5 8 -8.5 16.5t-6.5 19.5 q-3 12 -4.5 31t-2.5 41t-1 45.5v43.5q0 27 0.5 55t1.5 53t3.5 45t6.5 32q12 33 42.5 52.5t82.5 19.5zM270 407q-1 2 -1.5 5t-2.5 5l-180 -369q26 -32 85 -32q34 0 62 17t39 55q5 16 6.5 55t1.5 86q0 23 -0.5 50t-1.5 52t-3 45t-5 31zM171 471q-14 0 -28.5 -2.5t-27.5 -8.5 t-24 -17t-18 -28q-9 -23 -10 -70t-2 -108v-18q0 -56 2 -89.5t8 -52.5q0 -2 2 -6l179 368q-14 17 -35 24.5t-46 7.5zM144 562l66 143l33 -13l-84 -136z" />
<glyph unicode="&#x218;" horiz-adv-x="370" d="M340 178q0 -42 -7.5 -76t-25 -58.5t-47 -37.5t-73.5 -13q-42 0 -70.5 11t-47 30.5t-27 45.5t-9.5 57l27 5q0 -25 7 -47.5t22 -40t39 -27.5t59 -10q41 0 65.5 13t38 35t18 51t4.5 61q0 37 -3.5 62t-16 44.5t-37 35.5t-67.5 36q-51 23 -80.5 43t-45 41t-20 43.5t-4.5 49.5 q0 37 8.5 68.5t27 54t47 35t68.5 12.5q44 0 73 -12.5t46 -32.5t24 -45t7 -50l-26 -6q0 24 -6.5 46t-21 39t-38.5 27t-59 10q-39 0 -63 -13.5t-37.5 -35t-18 -47t-4.5 -49.5q0 -27 6 -48t22 -39t44.5 -35.5t74.5 -38.5q46 -20 71.5 -39t38 -41.5t15 -50t2.5 -63.5zM182 -178 h-18l17 82h-9v36h36v-36z" />
<glyph unicode="&#x219;" horiz-adv-x="314" d="M154 -7q-60 0 -95 29.5t-37 90.5l26 5q0 -48 28.5 -75.5t78.5 -26.5q58 0 81 30t23 77q0 24 -3.5 41.5t-15 31t-31.5 25.5t-53 24q-40 15 -64.5 30t-38 30.5t-18.5 32.5t-5 36q0 53 31 87t99 34q57 0 93 -30.5t36 -90.5l-26 -5q0 48 -28.5 75t-76.5 27q-30 0 -49 -8.5 t-30.5 -22t-16 -31t-4.5 -35.5t4.5 -32t17 -27t35.5 -25t59 -25q38 -14 60.5 -29t34 -32t14.5 -36.5t3 -43.5q0 -28 -7 -52t-22.5 -41.5t-40.5 -27.5t-62 -10zM153 -178h-18l17 82h-9v36h36v-36z" />
<glyph unicode="&#x259;" horiz-adv-x="334" d="M161 -7q-59 0 -93 31.5t-34 91.5v127h237v26q0 18 -0.5 39t-1.5 40.5t-3 36t-5 25.5q-8 25 -30.5 43.5t-63.5 18.5q-26 0 -45.5 -8t-32 -21.5t-19.5 -31.5t-9 -37l-24 5q5 56 41 86t86 30q30 0 51.5 -7t36.5 -19t24 -27t13 -31q3 -12 5 -31.5t3 -41.5t1 -45v-43 q0 -27 -0.5 -55t-2 -53t-4.5 -45t-7 -32q-12 -33 -41.5 -52.5t-81.5 -19.5zM259 74q8 20 9.5 57.5t2.5 88.5h-211v-103q0 -43 24 -71.5t78 -28.5q28 0 55.5 11.5t41.5 45.5z" />
<glyph unicode="&#x2b9;" horiz-adv-x="166" d="M180 672l-116 -240l-21 4l92 246z" />
<glyph unicode="&#x2c6;" horiz-adv-x="333" d="M166 649l-107 -98l-11 10l107 114h24l104 -112l-12 -11z" />
<glyph unicode="&#x2c7;" horiz-adv-x="333" d="M278 674l12 -11l-104 -112h-24l-107 114l11 10l107 -98z" />
<glyph unicode="&#x2d8;" horiz-adv-x="334" d="M173 576q32 0 58 20.5t34 62.5h23q-3 -19 -11 -38t-22 -34.5t-34.5 -25t-47.5 -9.5t-47 10t-33.5 25.5t-21.5 34.5t-11 37h22q7 -38 33 -60.5t58 -22.5z" />
<glyph unicode="&#x2d9;" horiz-adv-x="334" d="M163 615h28v-32h-28v32z" />
<glyph unicode="&#x2da;" horiz-adv-x="334" d="M172 554q-30 0 -52 22.5t-22 54.5q0 34 22 56t52 22q32 0 54 -22t22 -56q0 -32 -22 -54.5t-54 -22.5zM172 690q-22 0 -38.5 -17t-16.5 -42q0 -23 16.5 -40.5t38.5 -17.5q23 0 40 17.5t17 40.5q0 25 -17 42t-40 17z" />
<glyph unicode="&#x2db;" horiz-adv-x="334" d="M228 -94q0 19 10 46t31 52l22 -3l1 -1q-17 -20 -28.5 -46.5t-11.5 -43.5q0 -30 13 -43.5t32 -13.5q10 0 23 3.5t25 12.5l8 -21q-10 -8 -25.5 -13.5t-31.5 -5.5q-32 0 -50 23t-18 54z" />
<glyph unicode="&#x2dc;" horiz-adv-x="362" d="M234 571q-15 0 -29.5 6t-29 13t-28 13t-27.5 6q-12 0 -24 -9.5t-22 -24.5l-16 10q25 47 63 47q16 0 30 -6t27.5 -12.5t28 -12.5t30.5 -6q32 0 50 38l16 -7q-9 -30 -29 -42.5t-40 -12.5z" />
<glyph unicode="&#x2dd;" horiz-adv-x="334" d="M116 562l66 143l33 -13l-84 -136zM194 562l66 143l33 -13l-84 -136z" />
<glyph unicode="&#x384;" horiz-adv-x="334" d="M151 562l66 143l33 -13l-84 -136z" />
<glyph unicode="&#x385;" horiz-adv-x="333" d="M79 615h28v-32h-28v32zM221 615h28v-32h-28v32zM131 562l66 143l33 -13l-84 -136z" />
<glyph unicode="&#x386;" horiz-adv-x="367" d="M289 196h-213l-44 -196h-24l156 696h37l158 -696h-25zM142 493l-61 -274h203l-62 276l-39 178h-2zM-27 562l66 143l33 -13l-84 -136z" />
<glyph unicode="&#x387;" horiz-adv-x="107" d="M37 309v38h36v-38h-36z" />
<glyph unicode="&#x388;" horiz-adv-x="350" d="M52 696h276v-23h-251v-302h223v-23h-223v-324h251v-24h-276v696zM-82 562l66 143l33 -13l-84 -136z" />
<glyph unicode="&#x389;" horiz-adv-x="404" d="M328 345h-251v-345h-25v696h25v-327h251v327h26v-696h-26v345zM-85 562l66 143l33 -13l-84 -136z" />
<glyph unicode="&#x38a;" horiz-adv-x="165" d="M70 696h25v-696h-25v696zM-70 562l66 143l33 -13l-84 -136z" />
<glyph unicode="&#x38c;" horiz-adv-x="398" d="M328 558q0 60 -37.5 90.5t-91.5 30.5q-56 0 -92.5 -33t-36.5 -93v-416q0 -61 36.5 -91t92.5 -30q62 0 95.5 32t33.5 93v417zM199 -7q-32 0 -60 8.5t-49 26.5t-33 45t-12 65v416q0 37 12 65t33 46.5t49 27.5t60 9t60 -8.5t49 -26t33 -44.5t12 -64v-419q0 -38 -12 -65.5 t-33 -45.5t-49 -27t-60 -9zM-68 562l66 143l33 -13l-84 -136z" />
<glyph unicode="&#x38e;" horiz-adv-x="337" d="M167 326l131 370h27l-146 -403v-293h-25v293l-146 403h25l132 -370h2zM-107 562l66 143l33 -13l-84 -136z" />
<glyph unicode="&#x38f;" horiz-adv-x="396" d="M304 24h61v-24h-105v26q67 33 67 111v426q0 30 -11.5 52t-30 36t-41.5 21t-46 7q-27 0 -50.5 -8.5t-41 -24.5t-27.5 -39.5t-10 -53.5v-418q0 -39 18 -67.5t45 -41.5v-26h-99v24h58v2q-47 28 -47 110v418q0 37 13 65t34.5 46.5t49 27.5t57.5 9q29 0 56.5 -7.5t49.5 -24 t35 -43t13 -63.5v-428q0 -42 -13.5 -68.5t-35.5 -41.5zM-77 562l66 143l33 -13l-84 -136z" />
<glyph unicode="&#x390;" horiz-adv-x="151" d="M112 -4q-16 -1 -25.5 2.5t-14.5 10t-6.5 17t-1.5 24.5v437h25v-435q0 -21 6.5 -26t18.5 -7zM-7 615h28v-32h-28v32zM135 615h28v-32h-28v32zM45 562l66 143l33 -13l-84 -136z" />
<glyph unicode="&#x391;" horiz-adv-x="367" d="M289 196h-213l-44 -196h-24l156 696h37l158 -696h-25zM142 493l-61 -274h203l-62 276l-39 178h-2z" />
<glyph unicode="&#x392;" horiz-adv-x="408" d="M77 674v-295h141q67 0 91.5 38.5t24.5 110.5q0 70 -32 108t-110 38h-115zM77 357v-332h123q43 0 70.5 14t43.5 38t22.5 56t6.5 68q0 74 -30.5 115t-89.5 41h-146zM283 367q25 -9 41.5 -25t26.5 -38t14 -48.5t4 -55.5q0 -56 -12.5 -94t-35 -61.5t-53 -34t-66.5 -10.5h-150 v696h145q46 0 77 -11.5t50 -33t27.5 -52.5t8.5 -70q0 -27 -3 -51.5t-11.5 -45.5t-23.5 -37.5t-39 -26.5v-1z" />
<glyph unicode="&#x393;" horiz-adv-x="346" d="M53 696h276v-23h-251v-673h-25v696z" />
<glyph unicode="&#x394;" horiz-adv-x="367" d="M8 0l156 696h37l158 -696h-351zM136 469l-99 -446h291l-99 443l-46 212h-2z" />
<glyph unicode="&#x395;" horiz-adv-x="350" d="M52 696h276v-23h-251v-302h223v-23h-223v-324h251v-24h-276v696z" />
<glyph unicode="&#x396;" horiz-adv-x="296" d="M267 24v-24h-259v23l249 650h-225v23h250v-22l-249 -650h234z" />
<glyph unicode="&#x397;" horiz-adv-x="404" d="M328 345h-251v-345h-25v696h25v-327h251v327h26v-696h-26v345z" />
<glyph unicode="&#x398;" horiz-adv-x="398" d="M92 371h215v-22h-215v22zM328 558q0 60 -37.5 90.5t-91.5 30.5q-56 0 -92.5 -33t-36.5 -93v-416q0 -61 36.5 -91t92.5 -30q62 0 95.5 32t33.5 93v417zM199 -7q-32 0 -60 8.5t-49 26.5t-33 45t-12 65v416q0 37 12 65t33 46.5t49 27.5t60 9t60 -8.5t49 -26t33 -44.5t12 -64 v-419q0 -38 -12 -65.5t-33 -45.5t-49 -27t-60 -9z" />
<glyph unicode="&#x399;" horiz-adv-x="165" d="M70 696h25v-696h-25v696z" />
<glyph unicode="&#x39a;" horiz-adv-x="388" d="M78 243l246 453h29l-149 -273l181 -423h-30l-168 394l-111 -203v-191h-25v696h25v-453h2z" />
<glyph unicode="&#x39b;" horiz-adv-x="367" d="M222 495l-39 178h-2l-39 -180l-110 -493h-24l156 696h37l158 -696h-25z" />
<glyph unicode="&#x39c;" horiz-adv-x="516" d="M440 624l-170 -464h-27l-165 456h-3v-616h-25v696h26l179 -501h3l183 501h25v-696h-24v624h-2z" />
<glyph unicode="&#x39d;" horiz-adv-x="422" d="M75 627v-627h-25v696h24l271 -627h3v627h24v-696h-24l-271 627h-2z" />
<glyph unicode="&#x39e;" horiz-adv-x="336" d="M54 371h228v-23h-228v23zM25 696h286v-23h-286v23zM25 24h286v-24h-286v24z" />
<glyph unicode="&#x39f;" horiz-adv-x="398" d="M328 558q0 60 -37.5 90.5t-91.5 30.5q-56 0 -92.5 -33t-36.5 -93v-416q0 -61 36.5 -91t92.5 -30q62 0 95.5 32t33.5 93v417zM199 -7q-32 0 -60 8.5t-49 26.5t-33 45t-12 65v416q0 37 12 65t33 46.5t49 27.5t60 9t60 -8.5t49 -26t33 -44.5t12 -64v-419q0 -38 -12 -65.5 t-33 -45.5t-49 -27t-60 -9z" />
<glyph unicode="&#x3a0;" horiz-adv-x="404" d="M328 671h-251v-671h-25v696h302v-696h-26v671z" />
<glyph unicode="&#x3a1;" horiz-adv-x="382" d="M184 696q52 0 86.5 -14.5t54 -40t27.5 -60t8 -75.5q0 -46 -9 -83t-29.5 -63.5t-54.5 -40.5t-84 -14h-106v-304h-25v695h132zM77 674v-347h103q83 0 119.5 42.5t36.5 135.5q0 37 -7.5 68.5t-25.5 53.5t-47.5 34.5t-73.5 12.5h-105z" />
<glyph unicode="&#x3a3;" horiz-adv-x="286" d="M43 24h236v-24h-261v23l125 336l-126 315v22h257v-23h-232l125 -314z" />
<glyph unicode="&#x3a4;" horiz-adv-x="319" d="M171 0h-25v673h-140v23h304v-23h-139v-673z" />
<glyph unicode="&#x3a5;" horiz-adv-x="337" d="M167 326l131 370h27l-146 -403v-293h-25v293l-146 403h25l132 -370h2z" />
<glyph unicode="&#x3a6;" horiz-adv-x="474" d="M223 629q-29 0 -57 -8.5t-49.5 -25t-34.5 -40.5t-13 -55v-291q0 -31 13 -55t34.5 -40t49.5 -24t57 -8v547zM248 82q29 0 57 8t50 24t35.5 40t13.5 55v291q0 31 -13.5 55t-35.5 40.5t-50 25t-57 8.5v-547zM248 0h-25v59q-33 0 -65 9.5t-57 28.5t-40.5 47t-15.5 65v291 q0 37 15.5 66t40.5 48t57 29t65 10v43h25v-43q33 0 65.5 -10t58 -29t41.5 -48t16 -66v-291q0 -37 -16 -65t-41.5 -47t-58 -28.5t-65.5 -9.5v-59z" />
<glyph unicode="&#x3a7;" horiz-adv-x="332" d="M4 0l147 348l-146 346h29l132 -317l130 317h29l-147 -346l148 -348h-29l-131 318l-133 -318h-29z" />
<glyph unicode="&#x3a8;" horiz-adv-x="461" d="M424 695v-373q0 -37 -16 -64t-41.5 -45t-58 -27t-65.5 -10v-176h-25v176q-33 1 -65 10t-57 27t-40.5 45t-15.5 64v373h24v-373q0 -31 13 -54t34.5 -38t49.5 -22.5t57 -8.5v496h25v-496q29 1 57 8.5t50 22.5t35.5 38t13.5 54v373h25z" />
<glyph unicode="&#x3a9;" horiz-adv-x="396" d="M304 24h61v-24h-105v26q67 33 67 111v426q0 30 -11.5 52t-30 36t-41.5 21t-46 7q-27 0 -50.5 -8.5t-41 -24.5t-27.5 -39.5t-10 -53.5v-418q0 -39 18 -67.5t45 -41.5v-26h-99v24h58v2q-47 28 -47 110v418q0 37 13 65t34.5 46.5t49 27.5t57.5 9q29 0 56.5 -7.5t49.5 -24 t35 -43t13 -63.5v-428q0 -42 -13.5 -68.5t-35.5 -41.5z" />
<glyph unicode="&#x3aa;" horiz-adv-x="165" d="M70 696h25v-696h-25v696zM-3 773h28v-32h-28v32zM139 773h28v-32h-28v32z" />
<glyph unicode="&#x3ab;" horiz-adv-x="337" d="M167 326l131 370h27l-146 -403v-293h-25v293l-146 403h25l132 -370h2zM81 773h28v-32h-28v32zM223 773h28v-32h-28v32z" />
<glyph unicode="&#x3ac;" horiz-adv-x="349" d="M165 472q-29 0 -56 -16t-38 -57q-5 -16 -6 -54.5t-1 -85.5q0 -23 0.5 -50t1 -52t2.5 -45.5t5 -30.5q10 -33 33.5 -49t54.5 -16q27 0 49 11.5t37.5 30t23.5 41.5t8 45v209q0 53 -32 86t-82 33zM163 495q41 0 69 -15.5t45 -41.5h2v50h25v-488h-25v63h-2q-17 -32 -48.5 -51 t-67.5 -19q-51 2 -76 21.5t-36 48.5q-5 15 -7 36t-3.5 45.5t-1.5 50v49.5v21q0 26 0.5 55t3.5 61q3 33 15.5 54.5t29.5 35t37.5 19t39.5 5.5zM149 562l66 143l33 -13l-84 -136z" />
<glyph unicode="&#x3ad;" horiz-adv-x="325" d="M174 470q-20 0 -39 -5t-34 -18t-24 -33.5t-9 -51.5q0 -53 26 -72.5t67 -19.5h55v-25h-56q-17 0 -34 -6.5t-30.5 -21t-22 -36.5t-8.5 -53q0 -37 11 -59t27.5 -34t36.5 -16t37 -4q46 -1 74 26.5t28 75.5l26 -5q-2 -61 -39.5 -90.5t-89.5 -29.5q-71 1 -104 35t-33 102 q0 44 17 77t55 48q-36 11 -52.5 36.5t-16.5 70.5q0 65 36 99t98 34q26 0 49.5 -7.5t41 -23t28 -38t10.5 -52.5l-26 -5q0 48 -28.5 75t-76.5 27zM151 562l66 143l33 -13l-84 -136z" />
<glyph unicode="&#x3ae;" horiz-adv-x="353" d="M72 430q17 31 47 48t65 17q37 0 61.5 -11t38 -29t19 -42.5t5.5 -51.5v-361h-26v351q0 24 -4 46t-15 38t-30.5 25.5t-49.5 9.5q-28 0 -49 -11.5t-35.5 -29.5t-21.5 -41t-7 -46v-342h-25v487h25v-57h2zM139 562l66 143l33 -13l-84 -136z" />
<glyph unicode="&#x3af;" horiz-adv-x="151" d="M108 -4q-16 -1 -25.5 2.5t-14.5 10t-6.5 17t-1.5 24.5v437h25v-435q0 -21 6.5 -26t18.5 -7zM63 562l66 143l33 -13l-84 -136z" />
<glyph unicode="&#x3b0;" horiz-adv-x="333" d="M280 488h25v-265v-30.5t-0.5 -34t-1 -30t-0.5 -19.5q-3 -33 -15.5 -55t-30.5 -35.5t-39.5 -19.5t-43.5 -6q-60 0 -89 22.5t-40 61.5q-3 12 -4.5 31t-1.5 41v45.5v43.5v248h26v-267q0 -56 1 -89.5t7 -52.5q10 -29 34 -45t66 -16q34 0 62 17t39 55q5 16 5.5 55t0.5 86v259z M139 562l66 143l33 -13l-84 -136zM229 615h28v-32h-28v32zM87 615h28v-32h-28v32z" />
<glyph unicode="&#x3b1;" horiz-adv-x="349" d="M165 472q-29 0 -56 -16t-38 -57q-5 -16 -6 -54.5t-1 -85.5q0 -23 0.5 -50t1 -52t2.5 -45.5t5 -30.5q10 -33 33.5 -49t54.5 -16q27 0 49 11.5t37.5 30t23.5 41.5t8 45v209q0 53 -32 86t-82 33zM163 495q41 0 69 -15.5t45 -41.5h2v50h25v-488h-25v63h-2q-17 -32 -48.5 -51 t-67.5 -19q-51 2 -76 21.5t-36 48.5q-5 15 -7 36t-3.5 45.5t-1.5 50v49.5v21q0 26 0.5 55t3.5 61q3 33 15.5 54.5t29.5 35t37.5 19t39.5 5.5z" />
<glyph unicode="&#x3b2;" horiz-adv-x="340" d="M164 726q25 0 49 -8t42.5 -27t29.5 -49.5t11 -75.5q0 -51 -15 -91t-55 -52v-3q19 -6 34.5 -14t26 -27.5t16 -55t5.5 -96.5q0 -42 -4.5 -84t-20 -75.5t-45 -54t-79.5 -20.5q-36 0 -58.5 13t-38.5 37h-2v-191h-25v749q0 62 37.5 93.5t91.5 31.5zM164 702q-51 0 -77.5 -30.5 t-26.5 -73.5v-472q0 -20 5 -39.5t16.5 -35t29.5 -25t45 -9.5q44 0 69.5 18.5t38 49t15.5 69t3 77.5q0 47 -4.5 80.5t-15.5 54.5t-31 31t-50 10h-43v23h42q27 0 44.5 11t27 29.5t13.5 43t4 52.5q0 69 -28.5 102.5t-76.5 33.5z" />
<glyph unicode="&#x3b3;" horiz-adv-x="308" d="M176 -197h-27v200l-113 434q-4 15 -8.5 22.5t-17.5 7.5q-2 0 -1.5 0t-2.5 -1l-2 23l7.5 1.5t5.5 0.5q23 0 31.5 -15t14.5 -38l99 -389h3q26 106 56 219t56 219h28l-129 -484v-200z" />
<glyph unicode="&#x3b4;" horiz-adv-x="333" d="M305 219q0 -26 -0.5 -52t-3.5 -58q-3 -33 -15.5 -55t-30.5 -35.5t-39.5 -19.5t-43.5 -6q-60 0 -89 22.5t-40 61.5q-3 12 -4.5 30t-2.5 39.5t-1 44.5v43q0 55 3 91.5t11 59.5q11 29 38.5 52t60.5 33q-51 32 -69.5 60t-18.5 62q0 28 8 52t25.5 41.5t46 27.5t69.5 10 q7 0 30 -0.5t46 -3.5l-3 -23q-17 2 -36 3t-31 1q-41 0 -66.5 -9t-39 -24.5t-18 -35t-4.5 -40.5q0 -26 20.5 -54.5t80.5 -57.5q38 -18 61 -36t35.5 -39.5t16.5 -49t4 -65.5v-70zM178 454q-32 -5 -61.5 -24t-43.5 -53q-5 -11 -7 -23.5t-3 -29t-1.5 -39t-0.5 -52.5v-18 q0 -56 2 -87.5t8 -50.5q10 -29 34 -45t66 -16q34 0 62.5 17t39.5 55q5 16 6 53t2 84q1 46 0.5 85.5t-12.5 68.5q-11 25 -33 44t-58 31z" />
<glyph unicode="&#x3b5;" horiz-adv-x="325" d="M174 470q-20 0 -39 -5t-34 -18t-24 -33.5t-9 -51.5q0 -53 26 -72.5t67 -19.5h55v-25h-56q-17 0 -34 -6.5t-30.5 -21t-22 -36.5t-8.5 -53q0 -37 11 -59t27.5 -34t36.5 -16t37 -4q46 -1 74 26.5t28 75.5l26 -5q-2 -61 -39.5 -90.5t-89.5 -29.5q-71 1 -104 35t-33 102 q0 44 17 77t55 48q-36 11 -52.5 36.5t-16.5 70.5q0 65 36 99t98 34q26 0 49.5 -7.5t41 -23t28 -38t10.5 -52.5l-26 -5q0 48 -28.5 75t-76.5 27z" />
<glyph unicode="&#x3b6;" horiz-adv-x="303" d="M270 464h-235v22h268v-24q-58 -45 -104 -90t-78 -87.5t-49 -81t-17 -70.5q0 -21 6 -36t19.5 -26.5t35 -21.5t51.5 -22l51 -20q32 -13 46.5 -30t14.5 -38q0 -29 -26 -63l-23 -28l-19 14l22 31q17 26 17 44q0 30 -52 50l-56 21q-27 10 -48 21t-35.5 25t-21.5 33t-7 45 q0 28 13.5 65t42.5 79.5t74.5 89.5t109.5 96v2z" />
<glyph unicode="&#x3b7;" horiz-adv-x="353" d="M72 430q17 31 47 48t65 17q37 0 61.5 -11t38 -29t19 -42.5t5.5 -51.5v-361h-26v351q0 24 -4 46t-15 38t-30.5 25.5t-49.5 9.5q-28 0 -49 -11.5t-35.5 -29.5t-21.5 -41t-7 -46v-342h-25v487h25v-57h2z" />
<glyph unicode="&#x3b8;" horiz-adv-x="341" d="M37 469v55t1 53t3.5 45t6.5 32q12 33 42 52.5t82 19.5q55 0 81.5 -21t38.5 -51q4 -15 6.5 -36t4 -45t1.5 -49v-49v-252q0 -26 -0.5 -54t-3.5 -60q-3 -33 -15 -55t-30 -35.5t-39.5 -19.5t-43.5 -6q-60 0 -88.5 22.5t-39.5 61.5q-3 12 -4.5 31t-2 41t-0.5 45.5v43.5v231z M271 88q5 16 6.5 55t1.5 86v135h-217v-145q0 -56 2 -89.5t8 -52.5q10 -29 33.5 -45t65.5 -16q34 0 61.5 17t38.5 55zM62 387h217v73q0 23 -0.5 50t-1.5 52t-3 45t-5 31q-10 33 -36.5 48.5t-61.5 15.5q-28 0 -55.5 -11t-41.5 -45q-9 -23 -10.5 -70t-1.5 -108v-81z" />
<glyph unicode="&#x3b9;" horiz-adv-x="151" d="M108 -4q-16 -1 -25.5 2.5t-14.5 10t-6.5 17t-1.5 24.5v437h25v-435q0 -21 6.5 -26t18.5 -7z" />
<glyph unicode="&#x3ba;" horiz-adv-x="332" d="M67 173l203 313h28l-114 -175l143 -311h-29l-130 286l-101 -155v-131h-25v486h25v-313z" />
<glyph unicode="&#x3bb;" horiz-adv-x="314" d="M50 722q5 1 10.5 1.5t10.5 0.5q24 0 39 -13t23 -48l145 -607q4 -15 10.5 -24.5t21.5 -9.5v-23q-3 -1 -10 -1q-23 0 -32.5 15t-15.5 41l-88 374h-2l-129 -428h-27l145 475l-39 170q-7 30 -16.5 42t-32.5 12h-11z" />
<glyph unicode="&#x3bc;" horiz-adv-x="353" d="M71 -199h-25v686h26v-351q0 -24 4 -46t15 -38t30.5 -25.5t49.5 -9.5q28 0 49 11.5t35 29.5t21.5 41t7.5 46v342h25v-487h-25v57h-2q-17 -31 -47 -48t-65 -17q-38 0 -61.5 10.5t-37.5 28.5v-230z" />
<glyph unicode="&#x3bd;" horiz-adv-x="296" d="M134 1l-129 486h26l116 -438h2l113 438h27l-129 -486h-26z" />
<glyph unicode="&#x3be;" horiz-adv-x="280" d="M39 548q0 34 4.5 65.5t19 56.5t41.5 40t72 15q48 0 80 -21.5t42 -63.5l-25 -12q-14 73 -100 73q-23 0 -42.5 -6.5t-33.5 -23t-22 -45.5t-9 -74q0 -43 4.5 -70.5t16 -43.5t32 -22.5t52.5 -6.5h82v-23h-80q-32 0 -53 -8t-33.5 -29t-17.5 -57.5t-5 -93.5q0 -42 4.5 -69.5 t16 -46t32 -31.5t52.5 -26l56 -23q54 -22 54 -61q0 -27 -24 -65l-19 -30l-20 12l21 36q14 24 14 43q0 17 -13 28t-36 21l-56 23q-31 13 -51.5 27t-33 35t-17.5 51.5t-5 76.5q0 40 2 73t9.5 57.5t21.5 41t39 24.5v3q-24 5 -38.5 18.5t-22 33.5t-9.5 45t-2 53z" />
<glyph unicode="&#x3bf;" horiz-adv-x="343" d="M172 495q55 0 82 -21t39 -51q4 -15 6.5 -36t4 -45t1.5 -49v-49v-21q0 -26 -0.5 -54t-3.5 -60q-3 -33 -15.5 -55t-30.5 -35.5t-39.5 -19.5t-43.5 -6q-60 0 -89 22.5t-40 61.5q-3 12 -4.5 31t-2.5 41t-1 45.5v43.5q0 27 0.5 55t1.5 53t3.5 45t6.5 32q12 33 42.5 52.5 t82.5 19.5zM171 471q-14 0 -28.5 -2.5t-27.5 -8.5t-24 -17t-18 -28q-9 -23 -10 -70t-2 -108v-18q0 -56 2 -89.5t8 -52.5q10 -29 34 -45t66 -16q34 0 62 17t39 55q5 16 6.5 55t1.5 86q0 23 -0.5 50t-1.5 52t-3 45t-5 31q-10 33 -37 48.5t-62 15.5z" />
<glyph unicode="&#x3c0;" horiz-adv-x="353" d="M283 466h-211v-466h-27v487h263v-487h-25v466z" />
<glyph unicode="&#x3c1;" horiz-adv-x="342" d="M169 17q34 0 63 16.5t40 54.5q5 16 6.5 55t1.5 86q0 23 -0.5 50t-1.5 52t-3 45t-5 31q-10 33 -38 48.5t-63 15.5q-54 0 -80 -30t-26 -73v-242q0 -20 6.5 -39.5t20 -35t33 -25t46.5 -9.5zM172 -7q-74 0 -107 50h-2v-242h-25v565q0 62 35 95.5t98 33.5q55 0 82.5 -21 t39.5 -51q4 -15 6.5 -36t4 -45t1.5 -49v-49v-21q0 -26 -0.5 -54t-3.5 -60q-3 -33 -15.5 -55t-30.5 -35.5t-39.5 -19.5t-43.5 -6z" />
<glyph unicode="&#x3c2;" horiz-adv-x="310" d="M178 495q57 0 91.5 -30.5t34.5 -90.5l-26 -5q0 48 -26 75t-77 27q-27 0 -54 -12t-41 -46q-8 -18 -10 -66.5t-2 -109.5v-72q0 -29 5.5 -48.5t16.5 -34t28.5 -25t40.5 -21.5l57 -29q29 -14 39.5 -31.5t10.5 -36.5q0 -13 -6 -26t-10 -21q-7 -13 -13 -22.5t-14 -20.5l-20 12 l20 33q6 11 10.5 22t4.5 22q2 29 -40 50l-70 36q-20 10 -35.5 21.5t-26.5 26.5t-17 35t-6 48v83q0 27 0.5 54.5t1.5 52t3.5 44t6.5 31.5q12 33 41.5 54t81.5 21z" />
<glyph unicode="&#x3c3;" horiz-adv-x="343" d="M252 464q18 -9 26.5 -22t14.5 -27q9 -29 10.5 -76.5t1.5 -94.5v-21q0 -26 -0.5 -54t-3.5 -60q-3 -33 -15.5 -55t-30.5 -35.5t-39.5 -19.5t-43.5 -6q-60 0 -89 22.5t-40 61.5q-3 12 -4.5 31t-2.5 41t-1 45.5v43.5q0 27 0.5 54t1.5 50.5t3.5 42t6.5 30.5q12 32 42 51.5 t81 20.5h163v-22h-81v-1zM171 463q-14 0 -28.5 -2.5t-27.5 -8.5t-24 -17t-18 -28q-9 -23 -10 -66t-2 -104v-18q0 -56 2 -89.5t8 -52.5q10 -29 34 -45t66 -16q34 0 62 17t39 55q5 16 6.5 55t1.5 86q0 23 -0.5 48.5t-1.5 49t-3 42.5t-5 30q-10 33 -37 48.5t-62 15.5z" />
<glyph unicode="&#x3c4;" horiz-adv-x="221" d="M7 487h207v-22h-98v-359q0 -36 17 -60t61 -24h9v-22h-9q-22 0 -40.5 6t-32.5 19t-22 34t-8 52v354h-84v22z" />
<glyph unicode="&#x3c5;" horiz-adv-x="343" d="M280 488h25v-265v-30.5t-0.5 -34t-1 -30t-0.5 -19.5q-3 -33 -15.5 -55t-30.5 -35.5t-39.5 -19.5t-43.5 -6q-60 0 -89 22.5t-40 61.5q-3 12 -4.5 31t-1.5 41v45.5v43.5v248h26v-267q0 -56 1 -89.5t7 -52.5q10 -29 34 -45t66 -16q34 0 62 17t39 55q5 16 5.5 55t0.5 86v259z " />
<glyph unicode="&#x3c6;" horiz-adv-x="423" d="M223 15q45 2 82.5 21.5t48.5 62.5q4 16 6 49.5t2 80.5q0 23 -0.5 48.5t-1 49t-2.5 42.5t-5 30q-10 33 -42.5 53.5t-87.5 18.5v-456zM387 223q0 -26 -1 -56t-3 -53q-3 -32 -17 -54.5t-36 -37t-49.5 -21.5t-57.5 -8v-192h-25v192q-69 3 -104.5 29.5t-46.5 65.5 q-3 12 -4.5 29.5t-2.5 38t-1 42.5v42q0 27 0.5 55t1.5 52.5t3.5 44t6.5 31.5q14 39 52 57l12 -22q-12 -7 -21.5 -17t-16.5 -26q-9 -23 -10 -69t-2 -107v-18q0 -56 2 -85.5t8 -48.5q10 -29 42.5 -49.5t80.5 -22.5v478h43q32 0 55 -6.5t38.5 -17.5t25.5 -25t16 -29 q9 -29 10 -76.5t1 -94.5v-21z" />
<glyph unicode="&#x3c7;" horiz-adv-x="277" d="M138 232l-104 -232h-28l113 250l-105 236h28l96 -219l99 219h28l-109 -236l116 -250h-29z" />
<glyph unicode="&#x3c8;" horiz-adv-x="423" d="M384 487v-363q0 -35 -13.5 -59.5t-35.5 -40.5t-51.5 -23.5t-60.5 -7.5v-192h-25v192q-32 0 -61 7.5t-50.5 23.5t-34 40.5t-12.5 59.5v363h25v-365q0 -48 35.5 -77t97.5 -29v471h25v-471q60 0 98 29t38 77v365h25z" />
<glyph unicode="&#x3c9;" horiz-adv-x="534" d="M378 -6q-35 0 -65.5 17t-44.5 49h-2q-14 -32 -41 -49.5t-62 -17.5q-56 2 -83.5 24t-38.5 60q-3 12 -4.5 31t-2 41t-0.5 45.5v43.5q0 27 0.5 55t2 53t4 45t6.5 32q11 29 34.5 47.5t64.5 23.5v-25q-23 -4 -42.5 -16t-30.5 -38q-9 -23 -10.5 -70t-2.5 -108v-18 q0 -56 1.5 -89.5t7.5 -52.5q10 -28 33 -44.5t57 -16.5q48 0 71.5 31t23.5 74v197h26v-197q0 -43 27 -74t75 -31q29 0 51.5 16t29.5 53q3 16 6 56.5t3 87.5q0 23 -0.5 50t-2 52t-3.5 45t-5 31q-8 26 -27.5 41.5t-45.5 20.5l1 25q42 -5 63 -25t32 -46q4 -15 7 -36t4 -45 t1.5 -49t0.5 -49v-21q0 -26 -1 -54t-4 -60q-6 -66 -36.5 -90.5t-77.5 -24.5z" />
<glyph unicode="&#x3ca;" horiz-adv-x="151" d="M108 -4q-16 -1 -25.5 2.5t-14.5 10t-6.5 17t-1.5 24.5v437h25v-435q0 -21 6.5 -26t18.5 -7zM-11 615h28v-32h-28v32zM131 615h28v-32h-28v32z" />
<glyph unicode="&#x3cb;" horiz-adv-x="333" d="M280 488h25v-265v-30.5t-0.5 -34t-1 -30t-0.5 -19.5q-3 -33 -15.5 -55t-30.5 -35.5t-39.5 -19.5t-43.5 -6q-60 0 -89 22.5t-40 61.5q-3 12 -4.5 31t-1.5 41v45.5v43.5v248h26v-267q0 -56 1 -89.5t7 -52.5q10 -29 34 -45t66 -16q34 0 62 17t39 55q5 16 5.5 55t0.5 86v259z M227 615h28v-32h-28v32zM85 615h28v-32h-28v32z" />
<glyph unicode="&#x3cc;" horiz-adv-x="333" d="M172 495q55 0 82 -21t39 -51q4 -15 6.5 -36t4 -45t1.5 -49v-49v-21q0 -26 -0.5 -54t-3.5 -60q-3 -33 -15.5 -55t-30.5 -35.5t-39.5 -19.5t-43.5 -6q-60 0 -89 22.5t-40 61.5q-3 12 -4.5 31t-2.5 41t-1 45.5v43.5q0 27 0.5 55t1.5 53t3.5 45t6.5 32q12 33 42.5 52.5 t82.5 19.5zM171 471q-14 0 -28.5 -2.5t-27.5 -8.5t-24 -17t-18 -28q-9 -23 -10 -70t-2 -108v-18q0 -56 2 -89.5t8 -52.5q10 -29 34 -45t66 -16q34 0 62 17t39 55q5 16 6.5 55t1.5 86q0 23 -0.5 50t-1.5 52t-3 45t-5 31q-10 33 -37 48.5t-62 15.5zM151 562l66 143l33 -13 l-84 -136z" />
<glyph unicode="&#x3cd;" horiz-adv-x="343" d="M280 488h25v-265v-30.5t-0.5 -34t-1 -30t-0.5 -19.5q-3 -33 -15.5 -55t-30.5 -35.5t-39.5 -19.5t-43.5 -6q-60 0 -89 22.5t-40 61.5q-3 12 -4.5 31t-1.5 41v45.5v43.5v248h26v-267q0 -56 1 -89.5t7 -52.5q10 -29 34 -45t66 -16q34 0 62 17t39 55q5 16 5.5 55t0.5 86v259z M151 562l66 143l33 -13l-84 -136z" />
<glyph unicode="&#x3ce;" horiz-adv-x="534" d="M378 -6q-35 0 -65.5 17t-44.5 49h-2q-14 -32 -41 -49.5t-62 -17.5q-56 2 -83.5 24t-38.5 60q-3 12 -4.5 31t-2 41t-0.5 45.5v43.5q0 27 0.5 55t2 53t4 45t6.5 32q11 29 34.5 47.5t64.5 23.5v-25q-23 -4 -42.5 -16t-30.5 -38q-9 -23 -10.5 -70t-2.5 -108v-18 q0 -56 1.5 -89.5t7.5 -52.5q10 -28 33 -44.5t57 -16.5q48 0 71.5 31t23.5 74v197h26v-197q0 -43 27 -74t75 -31q29 0 51.5 16t29.5 53q3 16 6 56.5t3 87.5q0 23 -0.5 50t-2 52t-3.5 45t-5 31q-8 26 -27.5 41.5t-45.5 20.5l1 25q42 -5 63 -25t32 -46q4 -15 7 -36t4 -45 t1.5 -49t0.5 -49v-21q0 -26 -1 -54t-4 -60q-6 -66 -36.5 -90.5t-77.5 -24.5zM238 562l66 143l33 -13l-84 -136z" />
<glyph unicode="&#x401;" horiz-adv-x="350" d="M52 696h276v-23h-251v-302h223v-23h-223v-324h251v-24h-276v696zM93 773h28v-32h-28v32zM235 773h28v-32h-28v32z" />
<glyph unicode="&#x402;" horiz-adv-x="476" d="M295 471q28 0 53 -8t43.5 -24.5t29 -43.5t10.5 -64v-206q0 -75 -35 -111t-99 -36v23q59 0 83.5 34.5t24.5 90.5v201q0 60 -30 89.5t-79 29.5q-38 0 -70 -16t-55 -36v-394h-25v673h-125v23h344v-23h-194v-246h1q29 22 61.5 33t61.5 11z" />
<glyph unicode="&#x403;" horiz-adv-x="346" d="M53 696h276v-23h-251v-673h-25v696zM135 745l120 102l25 -26l-134 -88z" />
<glyph unicode="&#x404;" horiz-adv-x="382" d="M347 111q-5 -33 -20 -55.5t-35.5 -36.5t-45.5 -20t-49 -6q-69 0 -110 36t-41 111v413q0 75 41 112t110 37q26 0 51.5 -6t46 -19.5t34.5 -36t18 -55.5l-26 -9q-3 28 -14 48t-28 32t-38 17.5t-44 5.5q-59 0 -92.5 -33.5t-33.5 -93.5v-187h182v-24h-182v-202q0 -61 33.5 -92 t92.5 -31q21 0 42 5.5t38.5 18t29.5 32t16 48.5z" />
<glyph unicode="&#x405;" horiz-adv-x="370" d="M340 178q0 -42 -7.5 -76t-25 -58.5t-47 -37.5t-73.5 -13q-42 0 -70.5 11t-47 30.5t-27 45.5t-9.5 57l27 5q0 -25 7 -47.5t22 -40t39 -27.5t59 -10q41 0 65.5 13t38 35t18 51t4.5 61q0 37 -3.5 62t-16 44.5t-37 35.5t-67.5 36q-51 23 -80.5 43t-45 41t-20 43.5t-4.5 49.5 q0 37 8.5 68.5t27 54t47 35t68.5 12.5q44 0 73 -12.5t46 -32.5t24 -45t7 -50l-26 -6q0 24 -6.5 46t-21 39t-38.5 27t-59 10q-39 0 -63 -13.5t-37.5 -35t-18 -47t-4.5 -49.5q0 -27 6 -48t22 -39t44.5 -35.5t74.5 -38.5q46 -20 71.5 -39t38 -41.5t15 -50t2.5 -63.5z" />
<glyph unicode="&#x406;" horiz-adv-x="165" d="M70 696h25v-696h-25v696z" />
<glyph unicode="&#x407;" horiz-adv-x="165" d="M70 696h25v-696h-25v696zM-3 794h28v-32h-28v32zM139 794h28v-32h-28v32z" />
<glyph unicode="&#x408;" horiz-adv-x="309" d="M239 136q0 -66 -40 -104.5t-117 -38.5q-25 0 -49.5 6t-38.5 15l12 22q17 -11 39 -15t40 -4t40 4t42 17t33.5 37.5t13.5 64.5v556h25v-560z" />
<glyph unicode="&#x409;" horiz-adv-x="666" d="M351 374h106q50 0 84 -13.5t55 -37.5t30.5 -58t9.5 -75q0 -39 -8 -73.5t-28.5 -60.5t-55 -41t-86.5 -15h-132v673h-204v-334q0 -90 -5 -149.5t-17.5 -99.5t-33.5 -64t-53 -43l-12 19q27 19 45 38t29.5 53.5t16.5 94t5 160.5v348h254v-322zM456 25q44 0 73.5 12.5t47.5 35 t25.5 52.5t7.5 66q0 80 -39.5 119t-116.5 39h-103v-324h105z" />
<glyph unicode="&#x40a;" horiz-adv-x="648" d="M308 0v350h-231v-350h-25v696h25v-322h231v322h25v-322h106q50 0 84 -13.5t55 -37.5t30.5 -58t9.5 -75q0 -39 -8 -73.5t-28.5 -60.5t-55 -41t-86.5 -15h-132zM438 25q44 0 73.5 12.5t47.5 35t25.5 52.5t7.5 66q0 80 -39.5 119t-116.5 39h-103v-324h105z" />
<glyph unicode="&#x40b;" horiz-adv-x="476" d="M172 427q29 21 60.5 32.5t62.5 11.5q38 0 64 -11.5t42 -30.5t23 -44.5t7 -52.5v-332h-26v327q0 24 -6 46t-19 38t-33.5 25.5t-50.5 9.5q-26 0 -59.5 -11.5t-65.5 -40.5v-394h-25v673h-125v23h344v-23h-194v-246h1z" />
<glyph unicode="&#x40c;" horiz-adv-x="397" d="M51 0v696h25v-322h95q19 0 38.5 5t37 17.5t31.5 34t22 53.5l52 212h23l-45 -197q-12 -51 -36 -86.5t-62 -46.5q49 -11 71.5 -47t33.5 -88l50 -231h-26l-51 235q-8 35 -20 57.5t-28 35t-35.5 17.5t-40.5 5h-110v-350h-25zM155 745l120 102l25 -26l-134 -88z" />
<glyph unicode="&#x40e;" horiz-adv-x="391" d="M208 130q-12 -41 -24.5 -67.5t-26 -42.5t-29.5 -22.5t-35 -6.5h-15v26h14q29 0 51.5 24.5t36.5 81.5l9 36l-165 537h27l150 -490h2l137 490h26zM197 713q32 0 58 20.5t34 62.5h23q-3 -19 -11 -38t-22 -34.5t-34.5 -25t-47.5 -9.5t-47 10t-33.5 25.5t-21.5 34.5t-11 37h22 q7 -38 33 -60.5t58 -22.5z" />
<glyph unicode="&#x40f;" horiz-adv-x="404" d="M328 696h26v-696h-138v-150h-27v150h-137v696h25v-671h251v671z" />
<glyph unicode="&#x410;" horiz-adv-x="367" d="M289 196h-213l-44 -196h-24l156 696h37l158 -696h-25zM142 493l-61 -274h203l-62 276l-39 178h-2z" />
<glyph unicode="&#x411;" horiz-adv-x="382" d="M42 0v696h268v-23h-243v-299h106q50 0 84 -13.5t55 -37.5t30.5 -58t9.5 -75q0 -39 -8 -73.5t-28.5 -60.5t-55 -41t-86.5 -15h-132zM172 25q44 0 73.5 12.5t47.5 35t25.5 52.5t7.5 66q0 80 -39.5 119t-116.5 39h-103v-324h105z" />
<glyph unicode="&#x412;" horiz-adv-x="408" d="M77 674v-295h141q67 0 91.5 38.5t24.5 110.5q0 70 -32 108t-110 38h-115zM77 357v-332h123q43 0 70.5 14t43.5 38t22.5 56t6.5 68q0 74 -30.5 115t-89.5 41h-146zM283 367q25 -9 41.5 -25t26.5 -38t14 -48.5t4 -55.5q0 -56 -12.5 -94t-35 -61.5t-53 -34t-66.5 -10.5h-150 v696h145q46 0 77 -11.5t50 -33t27.5 -52.5t8.5 -70q0 -27 -3 -51.5t-11.5 -45.5t-23.5 -37.5t-39 -26.5v-1z" />
<glyph unicode="&#x413;" horiz-adv-x="346" d="M53 696h276v-23h-251v-673h-25v696z" />
<glyph unicode="&#x414;" horiz-adv-x="462" d="M29 -130h-24v154h36q16 24 27.5 49.5t19.5 60.5t13 83t7 117l11 362h282v-672h41v-154h-24v130h-389v-130zM144 671l-11 -325q-2 -55 -5 -102t-10 -86.5t-18 -73t-29 -60.5h304v647h-231z" />
<glyph unicode="&#x415;" horiz-adv-x="350" d="M52 696h276v-23h-251v-302h223v-23h-223v-324h251v-24h-276v696z" />
<glyph unicode="&#x416;" horiz-adv-x="626" d="M300 0v350h-79q-21 0 -40.5 -5t-35.5 -17.5t-28.5 -35t-19.5 -57.5l-51 -235h-26l50 231q11 52 33.5 88t71.5 47q-38 11 -62 46.5t-36 86.5l-45 197h23l52 -212q8 -32 22 -53.5t31.5 -34t37 -17.5t38.5 -5h64v322h25v-322h65q19 0 38.5 5t37 17.5t31.5 34t22 53.5l52 212 h23l-45 -197q-12 -51 -36 -86.5t-62 -46.5q49 -11 71.5 -47t33.5 -88l50 -231h-26l-51 235q-8 35 -20 57.5t-28 35t-35.5 17.5t-40.5 5h-80v-350h-25z" />
<glyph unicode="&#x417;" horiz-adv-x="371" d="M289 240q0 62 -25 91t-63 29h-59v27h61q34 0 59 26t27 82v59q0 60 -33 91.5t-84 31.5q-25 0 -48.5 -6.5t-41.5 -21.5t-29 -39t-11 -58l-25 6q0 39 14 66.5t36.5 45t51 25t56.5 7.5q65 0 102 -39t37 -108v-31q0 -18 -1.5 -41.5t-8 -45t-20 -39t-37.5 -24.5q26 -9 40 -29 t20 -42.5t6.5 -43.5t0.5 -32v-80q0 -42 -13.5 -71t-35.5 -47.5t-48.5 -27t-53.5 -8.5t-53.5 7.5t-48 24.5t-35 45t-13.5 69l25 5q0 -35 11 -59.5t28.5 -39.5t40 -22t45.5 -7t45.5 8t40.5 24t29 40.5t11 57.5v94v0z" />
<glyph unicode="&#x418;" horiz-adv-x="401" d="M324 631l-250 -631h-24v696h24v-629h3l249 629h25v-696h-25v631h-2z" />
<glyph unicode="&#x419;" horiz-adv-x="401" d="M200 734q32 0 58 20.5t34 62.5h23q-3 -19 -11 -38t-22 -34.5t-34.5 -25t-47.5 -9.5t-47 10t-33.5 25.5t-21.5 34.5t-11 37h22q7 -38 33 -60.5t58 -22.5zM324 631l-250 -631h-24v696h24v-629h3l249 629h25v-696h-25v631h-2z" />
<glyph unicode="&#x41a;" horiz-adv-x="397" d="M51 0v696h25v-322h95q19 0 38.5 5t37 17.5t31.5 34t22 53.5l52 212h23l-45 -197q-12 -51 -36 -86.5t-62 -46.5q49 -11 71.5 -47t33.5 -88l50 -231h-26l-51 235q-8 35 -20 57.5t-28 35t-35.5 17.5t-40.5 5h-110v-350h-25z" />
<glyph unicode="&#x41b;" horiz-adv-x="429" d="M354 673h-232v-334q0 -90 -5 -149.5t-17.5 -99.5t-33.5 -64t-53 -43l-12 20q27 19 45 39t29.5 55.5t16.5 94.5t5 156v348h282v-696h-25v673z" />
<glyph unicode="&#x41c;" horiz-adv-x="516" d="M440 624l-170 -464h-27l-165 456h-3v-616h-25v696h26l179 -501h3l183 501h25v-696h-24v624h-2z" />
<glyph unicode="&#x41d;" horiz-adv-x="404" d="M328 345h-251v-345h-25v696h25v-327h251v327h26v-696h-26v345z" />
<glyph unicode="&#x41e;" horiz-adv-x="398" d="M328 558q0 60 -37.5 90.5t-91.5 30.5q-56 0 -92.5 -33t-36.5 -93v-416q0 -61 36.5 -91t92.5 -30q62 0 95.5 32t33.5 93v417zM199 -7q-32 0 -60 8.5t-49 26.5t-33 45t-12 65v416q0 37 12 65t33 46.5t49 27.5t60 9t60 -8.5t49 -26t33 -44.5t12 -64v-419q0 -38 -12 -65.5 t-33 -45.5t-49 -27t-60 -9z" />
<glyph unicode="&#x41f;" horiz-adv-x="404" d="M328 671h-251v-671h-25v696h302v-696h-26v671z" />
<glyph unicode="&#x420;" horiz-adv-x="382" d="M184 696q52 0 86.5 -14.5t54 -40t27.5 -60t8 -75.5q0 -46 -9 -83t-29.5 -63.5t-54.5 -40.5t-84 -14h-106v-304h-25v695h132zM77 674v-347h103q83 0 119.5 42.5t36.5 135.5q0 37 -7.5 68.5t-25.5 53.5t-47.5 34.5t-73.5 12.5h-105z" />
<glyph unicode="&#x421;" horiz-adv-x="382" d="M197 16q23 0 45.5 7t40 22t28.5 39.5t11 59.5l25 -5q0 -41 -13.5 -69t-35 -45t-48 -24.5t-53.5 -7.5q-69 0 -110 36t-41 111v413q0 75 41 112t110 37q28 0 55 -7.5t48 -25t34 -45t13 -66.5l-25 -6q0 34 -10 58t-27.5 39.5t-40 22.5t-47.5 7q-59 0 -92.5 -33.5 t-33.5 -93.5v-413q0 -61 33.5 -92t92.5 -31z" />
<glyph unicode="&#x422;" horiz-adv-x="319" d="M171 0h-25v673h-140v23h304v-23h-139v-673z" />
<glyph unicode="&#x423;" horiz-adv-x="391" d="M208 130q-12 -41 -24.5 -67.5t-26 -42.5t-29.5 -22.5t-35 -6.5h-15v26h14q29 0 51.5 24.5t36.5 81.5l9 36l-165 537h27l150 -490h2l137 490h26z" />
<glyph unicode="&#x424;" horiz-adv-x="474" d="M223 629q-29 0 -57 -8.5t-49.5 -25t-34.5 -40.5t-13 -55v-291q0 -31 13 -55t34.5 -40t49.5 -24t57 -8v547zM248 82q29 0 57 8t50 24t35.5 40t13.5 55v291q0 31 -13.5 55t-35.5 40.5t-50 25t-57 8.5v-547zM248 0h-25v59q-33 0 -65 9.5t-57 28.5t-40.5 47t-15.5 65v291 q0 37 15.5 66t40.5 48t57 29t65 10v43h25v-43q33 0 65.5 -10t58 -29t41.5 -48t16 -66v-291q0 -37 -16 -65t-41.5 -47t-58 -28.5t-65.5 -9.5v-59z" />
<glyph unicode="&#x425;" horiz-adv-x="332" d="M4 0l147 348l-146 346h29l132 -317l130 317h29l-147 -346l148 -348h-29l-131 318l-133 -318h-29z" />
<glyph unicode="&#x426;" horiz-adv-x="404" d="M354 24h38v-154h-25v130h-315v696h25v-672h251v672h26v-672z" />
<glyph unicode="&#x427;" horiz-adv-x="369" d="M49 696v-222q0 -40 8 -67t25.5 -43.5t46 -24t69.5 -7.5q20 0 49.5 5.5t53.5 16.5v342h25v-695h-25v329q-9 -4 -22.5 -8t-28.5 -7t-30 -4.5t-26 -1.5q-46 0 -78 9t-52.5 28.5t-29.5 51t-9 77.5v221h24z" />
<glyph unicode="&#x428;" horiz-adv-x="591" d="M513 696h26v-696h-487v696h25v-671h204v671h26v-671h206v671z" />
<glyph unicode="&#x429;" horiz-adv-x="589" d="M539 25h39v-155h-25v130h-501v696h25v-671h204v671h26v-671h206v671h26v-671z" />
<glyph unicode="&#x42a;" horiz-adv-x="542" d="M5 696h222v-322h106q50 0 84 -13.5t55 -37.5t30.5 -58t9.5 -75q0 -39 -8 -73.5t-28.5 -60.5t-55 -41t-86.5 -15h-132v673h-197v23zM332 25q44 0 73.5 12.5t47.5 35t25.5 52.5t7.5 66q0 80 -39.5 119t-116.5 39h-103v-324h105z" />
<glyph unicode="&#x42b;" horiz-adv-x="499" d="M52 0v696h25v-322h106q50 0 84 -13.5t55 -37.5t30.5 -58t9.5 -75q0 -39 -8 -73.5t-28.5 -60.5t-55 -41t-86.5 -15h-132zM182 25q44 0 73.5 12.5t47.5 35t25.5 52.5t7.5 66q0 80 -39.5 119t-116.5 39h-103v-324h105zM419 696h25v-696h-25v696z" />
<glyph unicode="&#x42c;" horiz-adv-x="382" d="M42 0v696h25v-322h106q50 0 84 -13.5t55 -37.5t30.5 -58t9.5 -75q0 -39 -8 -73.5t-28.5 -60.5t-55 -41t-86.5 -15h-132zM172 25q44 0 73.5 12.5t47.5 35t25.5 52.5t7.5 66q0 80 -39.5 119t-116.5 39h-103v-324h105z" />
<glyph unicode="&#x42d;" horiz-adv-x="382" d="M50 120q4 -29 15.5 -48.5t28 -32t37 -18t41.5 -5.5q69 0 100 37.5t31 115.5v173h-182v24h182v156q0 81 -31 119t-93 38q-23 0 -44 -6t-38.5 -18t-29.5 -31.5t-16 -46.5l-25 8q4 32 19 54t36.5 36t46.5 20.5t51 6.5q71 0 110 -41t39 -138v-353q0 -51 -11 -85t-31.5 -54.5 t-49 -29t-64.5 -8.5q-24 0 -48.5 6t-44.5 20.5t-34.5 37t-18.5 55.5z" />
<glyph unicode="&#x42e;" horiz-adv-x="509" d="M315 -7q-27 0 -53.5 7.5t-47.5 23.5t-34.5 42t-13.5 64v215h-89v-345h-25v696h25v-327h89v195q0 37 13.5 63.5t34.5 43t47.5 24t53.5 7.5t53.5 -7.5t47.5 -24t34.5 -43t13.5 -63.5v-434q0 -38 -13.5 -64t-34.5 -42t-47.5 -23.5t-53.5 -7.5zM439 559q0 30 -10.5 52.5 t-28 37.5t-40 22.5t-45.5 7.5q-24 0 -46.5 -7.5t-40 -22.5t-27.5 -37.5t-10 -52.5v-425q0 -30 11 -52.5t28.5 -37t39.5 -21.5t45 -7t45.5 7.5t40 22.5t28 37.5t10.5 52.5v423z" />
<glyph unicode="&#x42f;" horiz-adv-x="405" d="M9 0l46 216q10 47 29.5 81.5t61.5 48.5q-56 17 -79 57t-23 109q0 41 9.5 75t32 58t58 37.5t88.5 13.5h118v-696h-25v335h-119q-21 0 -40.5 -5t-35.5 -17.5t-28.5 -35t-19.5 -57.5l-47 -220h-26zM234 674q-89 0 -127.5 -43.5t-38.5 -118.5q0 -87 42.5 -121t120.5 -34h94 v317h-91z" />
<glyph unicode="&#x430;" horiz-adv-x="334" d="M166 259q-51 0 -84 -30.5t-33 -102.5q0 -21 5.5 -41t18 -35t33 -24.5t50.5 -9.5q46 0 78.5 25t32.5 75v143h-101zM39 423q15 32 46 52t82 20q61 0 93.5 -27.5t32.5 -99.5v-368h-26v44h-2q-13 -17 -28 -27t-30.5 -15t-31 -6.5t-28.5 -1.5q-34 0 -57.5 11t-38 29.5t-21 43 t-6.5 51.5q0 28 6.5 55.5t22.5 49.5t42.5 35.5t66.5 13.5h105v83q0 23 -4 42.5t-15 33.5t-31 22t-52 8q-39 0 -65.5 -17t-36.5 -42z" />
<glyph unicode="&#x431;" horiz-adv-x="351" d="M66 219q0 -56 2 -89.5t8 -52.5q10 -29 34.5 -45t66.5 -16q38 0 64 17t37 55q5 16 7 55t2 86v89t-8 68q-9 29 -29 47.5t-63 18.5q-29 0 -50.5 -12.5t-36 -33t-22.5 -46.5t-9 -53l-3 -76v-12zM40 238q0 72 0.5 130t4 103t11.5 79t23 58q16 27 40.5 44t51.5 29t54 20.5 t48 18.5l11 -22q-23 -12 -48.5 -20t-51 -18.5t-48.5 -27t-40 -44.5q-9 -15 -14 -36t-8 -46.5t-4.5 -53t-3.5 -55.5h3q12 26 28 41.5t32.5 24t32.5 11t28 2.5q48 0 75 -22.5t37 -51.5q4 -10 5.5 -28t2.5 -40.5t1 -47v-48.5v-15q0 -26 -0.5 -54t-3.5 -60q-3 -33 -15.5 -55 t-30.5 -35.5t-39.5 -19.5t-43.5 -6q-60 0 -89 22.5t-40 61.5q-3 12 -5 31t-2.5 41t-1 45.5t-0.5 43.5z" />
<glyph unicode="&#x432;" horiz-adv-x="352" d="M70 464v-195h119q55 0 76 26t21 73q0 46 -27 71t-93 25h-96zM70 246v-222h103q36 0 59 9.5t36.5 26t19 37.5t5.5 45q0 50 -25.5 77t-75.5 27h-122zM45 0v487h125q79 0 110.5 -31.5t31.5 -88.5q0 -36 -10.5 -65t-45.5 -45q18 -7 30.5 -19.5t19.5 -28.5t10 -33.5t3 -33.5 q0 -39 -11 -66.5t-30 -44t-45.5 -24t-57.5 -7.5h-130z" />
<glyph unicode="&#x433;" horiz-adv-x="299" d="M45 487h240v-23h-214v-464h-26v487z" />
<glyph unicode="&#x434;" horiz-adv-x="387" d="M30 -127h-25v151h28q26 19 37 71.5t15 154.5l8 237h247v-463h32v-151h-25v127h-317v-127zM118 464l-8 -223q-3 -81 -12.5 -136t-32.5 -81h249v440h-196z" />
<glyph unicode="&#x435;" horiz-adv-x="334" d="M171 495q59 0 93 -31.5t34 -91.5v-127h-237v-26q0 -18 0.5 -39t1.5 -40.5t3 -36t5 -25.5q8 -25 30.5 -43.5t63.5 -18.5q26 0 45.5 8t32 21.5t19.5 31t9 37.5l24 -5q-5 -56 -41 -86t-86 -30q-30 0 -51.5 7t-36.5 19t-24 27t-13 31q-3 12 -5 31.5t-3 41.5t-1 45v43 q0 27 0.5 55t2 53t4.5 45t7 32q12 33 41.5 52.5t81.5 19.5zM73 414q-8 -20 -9.5 -57.5t-2.5 -88.5h211v103q0 43 -24 71.5t-78 28.5q-28 0 -55.5 -11.5t-41.5 -45.5z" />
<glyph unicode="&#x436;" horiz-adv-x="537" d="M256 0v240h-78q-35 0 -59.5 -15t-37.5 -64l-40 -161h-26l40 158q10 36 25 61.5t50 33.5q-28 8 -43.5 32.5t-25.5 60.5l-36 141h23l41 -152q6 -23 16.5 -37t23.5 -22t27.5 -11t28.5 -3h71v225h25v-225h71q14 0 28.5 3t27.5 11t23.5 22t16.5 37l41 152h23l-36 -141 q-10 -36 -25.5 -60.5t-43.5 -32.5q35 -8 50 -33.5t25 -61.5l40 -158h-26l-40 161q-13 49 -37.5 64t-59.5 15h-78v-240h-25z" />
<glyph unicode="&#x437;" horiz-adv-x="308" d="M109 272h63q28 0 49.5 21t21.5 78q0 29 -9 48t-23 30.5t-32 16t-36 4.5q-42 0 -72 -20t-34 -67l-24 5q2 28 13.5 48t29.5 33t40.5 19t46.5 6q22 0 44.5 -5t40.5 -18.5t29 -37.5t11 -61q0 -15 -2 -31.5t-7 -32t-15.5 -28t-26.5 -20.5q34 -16 42 -46.5t9 -74.5 q0 -40 -12 -67.5t-30.5 -44.5t-42 -24.5t-46.5 -7.5t-45.5 5.5t-41 18t-30.5 33.5t-13 52l25 3q3 -47 34.5 -67.5t70.5 -20.5q19 0 38 6t34 20t24.5 37t9.5 57q0 33 -6 54.5t-16.5 34t-24 17t-29.5 4.5h-58v23z" />
<glyph unicode="&#x438;" horiz-adv-x="353" d="M286 0v438l-219 -438h-25v487h25v-438l219 438h25v-487h-25z" />
<glyph unicode="&#x439;" horiz-adv-x="353" d="M174 576q32 0 58 20.5t34 62.5h23q-3 -19 -11 -38t-22 -34.5t-34.5 -25t-47.5 -9.5t-47 10t-33.5 25.5t-21.5 34.5t-11 37h22q7 -38 33 -60.5t58 -22.5zM286 0v438l-219 -438h-25v487h25v-438l219 438h25v-487h-25z" />
<glyph unicode="&#x43a;" horiz-adv-x="329" d="M43 0v487h25v-225h81q14 0 28.5 3t27.5 11t23.5 22t16.5 37l41 152h23l-36 -141q-10 -36 -25.5 -60.5t-43.5 -32.5q35 -8 50 -33.5t25 -61.5l40 -158h-26l-40 161q-13 49 -37.5 64t-59.5 15h-88v-240h-25z" />
<glyph unicode="&#x43b;" horiz-adv-x="361" d="M293 464h-182v-223q0 -99 -19 -163.5t-75 -95.5l-12 19q23 14 38.5 33t25.5 47.5t14 69t4 99.5v237h232v-487h-26v464z" />
<glyph unicode="&#x43c;" horiz-adv-x="445" d="M377 428l-143 -317h-26l-138 316l-1 -1v-426h-25v487h26l151 -350l158 350h24v-487h-25v428h-1z" />
<glyph unicode="&#x43d;" horiz-adv-x="348" d="M280 238h-210v-238h-26v487h26v-224h210v224h26v-487h-26v238z" />
<glyph unicode="&#x43e;" horiz-adv-x="343" d="M172 495q55 0 82 -21t39 -51q4 -15 6.5 -36t4 -45t1.5 -49v-49v-21q0 -26 -0.5 -54t-3.5 -60q-3 -33 -15.5 -55t-30.5 -35.5t-39.5 -19.5t-43.5 -6q-60 0 -89 22.5t-40 61.5q-3 12 -4.5 31t-2.5 41t-1 45.5v43.5q0 27 0.5 55t1.5 53t3.5 45t6.5 32q12 33 42.5 52.5 t82.5 19.5zM171 471q-14 0 -28.5 -2.5t-27.5 -8.5t-24 -17t-18 -28q-9 -23 -10 -70t-2 -108v-18q0 -56 2 -89.5t8 -52.5q10 -29 34 -45t66 -16q34 0 62 17t39 55q5 16 6.5 55t1.5 86q0 23 -0.5 50t-1.5 52t-3 45t-5 31q-10 33 -37 48.5t-62 15.5z" />
<glyph unicode="&#x43f;" horiz-adv-x="353" d="M283 466h-211v-466h-27v487h263v-487h-25v466z" />
<glyph unicode="&#x440;" horiz-adv-x="342" d="M178 470q-50 0 -82 -33t-32 -86v-205q0 -24 7 -47.5t21 -42t34.5 -30t47.5 -11.5q33 0 59 18.5t36 51.5q3 10 4.5 29.5t2.5 43.5t1 50v49q0 47 -1 85.5t-6 54.5q-11 41 -34.5 57t-57.5 16zM180 493q21 0 41.5 -5.5t37 -19t28 -35t14.5 -54.5q3 -32 3 -61v-55v-21 q0 -57 -0.5 -102t-11.5 -74q-5 -15 -14.5 -28.5t-23.5 -24t-34 -16.5t-47 -6q-26 0 -44 7t-30.5 17t-20 21t-12.5 19h-2v-251h-25v682h25v-50h2q17 26 45 41.5t69 15.5z" />
<glyph unicode="&#x441;" horiz-adv-x="327" d="M172 495q57 0 91.5 -30.5t34.5 -90.5l-26 -5q0 48 -26 75t-77 27q-28 0 -54.5 -12t-40.5 -46q-8 -19 -9.5 -67t-2.5 -109v-18q0 -18 0.5 -39t1.5 -40.5t3 -36t5 -25.5q10 -29 33.5 -45.5t61.5 -16.5q48 0 75.5 24.5t29.5 77.5l26 -5q-2 -61 -37 -90.5t-92 -29.5 q-30 0 -51.5 7t-36.5 19t-24 27t-13 31q-3 12 -5 31.5t-3 41.5t-1 45v43q0 27 0.5 54.5t2 52t4 44t6.5 31.5q12 33 42 54t82 21z" />
<glyph unicode="&#x442;" horiz-adv-x="275" d="M149 0h-25v464h-118v23h262v-23h-119v-464z" />
<glyph unicode="&#x443;" horiz-adv-x="304" d="M151 46l122 441h26l-166 -595q-10 -39 -34.5 -66t-68.5 -27h-7v23h7q33 0 52.5 23.5t29.5 63.5l24 96l-129 482h27l115 -441h2z" />
<glyph unicode="&#x444;" horiz-adv-x="423" d="M198 -7q-60 0 -100.5 24.5t-51.5 67.5q-3 12 -5 29.5t-3.5 38.5t-2 43t-0.5 42q0 27 1 54.5t3 51t5 42t8 29.5q14 33 50 57t96 24v200h25v-200q63 -1 100.5 -26.5t49.5 -60.5q9 -29 11.5 -73t2.5 -92v-21q0 -26 -1.5 -51.5t-4.5 -57.5q-3 -33 -18 -56t-37.5 -37.5 t-49.5 -21t-53 -6.5v-192h-25v192zM223 16q44 0 81.5 22t48.5 60q5 16 6.5 50t1.5 81q0 23 -0.5 46.5t-1.5 45.5t-3 40.5t-6 31.5q-6 19 -18.5 34.5t-30 25.5t-37.5 15t-41 4v-456zM198 472q-39 0 -72.5 -15.5t-47.5 -49.5q-9 -23 -12.5 -66t-4.5 -104v-18q0 -56 3.5 -85.5 t9.5 -48.5q11 -32 46 -50.5t77 -18.5z" />
<glyph unicode="&#x445;" horiz-adv-x="277" d="M138 232l-104 -232h-28l113 250l-105 236h28l96 -219l99 219h28l-109 -236l116 -250h-29z" />
<glyph unicode="&#x446;" horiz-adv-x="354" d="M317 0h-272v487h25v-463h210v463h27v-463h32v-151h-22v127z" />
<glyph unicode="&#x447;" horiz-adv-x="333" d="M262 229q-29 -20 -60.5 -30t-57.5 -10q-38 0 -61 10t-36 26.5t-17.5 38.5t-4.5 46v177h26v-167q0 -23 3.5 -42t13.5 -33.5t28.5 -22.5t48.5 -8q31 0 64 13t54 32v228h25v-486h-25v228h-1z" />
<glyph unicode="&#x448;" horiz-adv-x="533" d="M461 487h27v-487h-443v487h26v-463h181v463h26v-463h183v463z" />
<glyph unicode="&#x449;" horiz-adv-x="535" d="M461 487h27v-463h32v-151h-22v127h-453v487h26v-463h181v463h26v-463h183v463z" />
<glyph unicode="&#x44a;" horiz-adv-x="468" d="M174 0v464h-169v23h192v-220h90q43 0 72.5 -9.5t47.5 -26t26 -40t8 -51.5q0 -27 -7 -52t-24 -44.5t-47 -31.5t-75 -12h-114zM285 24q37 0 62.5 9t40.5 24.5t21.5 36t6.5 44.5q0 54 -33.5 79t-98.5 25h-87v-218h88z" />
<glyph unicode="&#x44b;" horiz-adv-x="429" d="M358 487h26v-487h-26v487zM156 24q37 0 62.5 9t40.5 24.5t21.5 36t6.5 44.5q0 54 -33.5 79t-98.5 25h-87v-218h88zM45 0v487h23v-220h90q43 0 72.5 -9.5t47.5 -26t26 -40t8 -51.5q0 -27 -7 -52t-24 -44.5t-47 -31.5t-75 -12h-114z" />
<glyph unicode="&#x44c;" horiz-adv-x="330" d="M148 24q37 0 62.5 9t40.5 24.5t21.5 36t6.5 44.5q0 54 -33.5 79t-98.5 25h-87v-218h88zM37 0v487h23v-220h90q43 0 72.5 -9.5t47.5 -26t26 -40t8 -51.5q0 -27 -7 -52t-24 -44.5t-47 -31.5t-75 -12h-114z" />
<glyph unicode="&#x44d;" horiz-adv-x="317" d="M98 261h154q-1 53 -3 94t-9 58q-14 34 -39.5 46t-53.5 12q-45 0 -74 -24.5t-31 -69.5l-26 7q3 56 40 83.5t91 27.5t80.5 -21t38.5 -54q4 -12 6.5 -31.5t3.5 -44t1.5 -52t0.5 -54.5v-43t-0.5 -45t-2.5 -41.5t-5 -31.5q-4 -16 -13 -31t-24 -27t-36.5 -19t-51.5 -7 q-54 0 -89 27t-40 84l26 5q4 -48 32 -70.5t73 -22.5q38 0 61.5 16.5t33.5 45.5q3 9 5 25.5t3 36t1.5 40.5t0.5 39v18h-154v24z" />
<glyph unicode="&#x44e;" horiz-adv-x="446" d="M45 487h25v-224h75q0 24 0.5 48.5t1.5 45.5t3 38t6 28q12 33 40.5 52.5t80.5 19.5q27 0 46.5 -5.5t33 -15.5t22.5 -23t15 -28q4 -15 6.5 -36t4 -45t1.5 -49v-49v-21q0 -26 -0.5 -54t-3.5 -60q-3 -33 -15 -55t-29 -35.5t-38 -19.5t-43 -6q-60 0 -87 22.5t-38 61.5 q-3 10 -4 28.5t-2 41.5t-1 47v44h-75v-238h-25v487zM276 471q-28 0 -54 -11t-40 -45q-9 -23 -9.5 -70t-1.5 -108v-18q0 -56 1.5 -89.5t7.5 -52.5q10 -29 32 -45t64 -16q34 0 60 17t37 55q5 16 6.5 55t1.5 86q0 23 -0.5 50t-1.5 52t-3 45t-5 31q-10 33 -35 48.5t-60 15.5z " />
<glyph unicode="&#x44f;" horiz-adv-x="353" d="M26 0l33 153q7 32 20.5 57t42.5 34q-41 11 -62 37t-21 74q0 27 7 51t24.5 42t47.5 28.5t76 10.5h109v-487h-25v235h-97q-18 0 -33 -3t-27.5 -11.5t-22 -24t-14.5 -40.5l-33 -156h-25zM190 464q-37 0 -61 -8.5t-38.5 -23t-20.5 -34.5t-6 -44q0 -54 32 -75t97 -21h85v206 h-88z" />
<glyph unicode="&#x451;" horiz-adv-x="334" d="M171 495q59 0 93 -31.5t34 -91.5v-127h-237v-26q0 -18 0.5 -39t1.5 -40.5t3 -36t5 -25.5q8 -25 30.5 -43.5t63.5 -18.5q26 0 45.5 8t32 21.5t19.5 31t9 37.5l24 -5q-5 -56 -41 -86t-86 -30q-30 0 -51.5 7t-36.5 19t-24 27t-13 31q-3 12 -5 31.5t-3 41.5t-1 45v43 q0 27 0.5 55t2 53t4.5 45t7 32q12 33 41.5 52.5t81.5 19.5zM73 414q-8 -20 -9.5 -57.5t-2.5 -88.5h211v103q0 43 -24 71.5t-78 28.5q-28 0 -55.5 -11.5t-41.5 -45.5zM85 622h28v-32h-28v32zM227 622h28v-32h-28v32z" />
<glyph unicode="&#x452;" horiz-adv-x="353" d="M184 495q55 0 80.5 -21t37.5 -51q4 -15 6.5 -36t4 -45t1.5 -49v-49v-35q0 -26 -0.5 -54t-3.5 -60q-3 -33 -15 -55t-29.5 -35.5t-39.5 -19.5t-46 -6v23q34 0 62 17t39 55q2 8 3.5 24.5t2.5 37.5t1.5 45.5t0.5 47.5t-0.5 50t-1.5 52t-3 45t-5 31q-10 33 -35 48.5t-60 15.5 q-27 0 -48 -11t-35.5 -28.5t-22 -40t-8.5 -45.5v-346h-25v583h-45v20h45v124h25v-124h211v-20h-211v-153h1q17 31 47.5 48t65.5 17z" />
<glyph unicode="&#x453;" horiz-adv-x="299" d="M125 562l66 143l33 -13l-84 -136zM45 487h240v-23h-214v-464h-26v487z" />
<glyph unicode="&#x454;" horiz-adv-x="330" d="M300 94q-7 -51 -41.5 -76t-86.5 -25q-30 0 -51.5 7t-36.5 19t-24 27t-13 31q-3 12 -5 31.5t-2.5 41.5t-0.5 45v43q0 27 0.5 54.5t1.5 52t3.5 44t6.5 31.5q12 33 42 54t82 21q53 0 86.5 -26.5t38.5 -79.5l-26 -5q-4 42 -29 64.5t-73 22.5q-28 0 -54.5 -12t-40.5 -46 q-7 -17 -9 -58t-3 -94h154v-25h-154v-17q0 -18 0.5 -39t1.5 -40.5t3 -36t5 -25.5q10 -29 33.5 -45.5t61.5 -16.5q44 0 71 20.5t33 64.5z" />
<glyph unicode="&#x455;" horiz-adv-x="314" d="M154 -7q-60 0 -95 29.5t-37 90.5l26 5q0 -48 28.5 -75.5t78.5 -26.5q58 0 81 30t23 77q0 24 -3.5 41.5t-15 31t-31.5 25.5t-53 24q-40 15 -64.5 30t-38 30.5t-18.5 32.5t-5 36q0 53 31 87t99 34q57 0 93 -30.5t36 -90.5l-26 -5q0 48 -28.5 75t-76.5 27q-30 0 -49 -8.5 t-30.5 -22t-16 -31t-4.5 -35.5t4.5 -32t17 -27t35.5 -25t59 -25q38 -14 60.5 -29t34 -32t14.5 -36.5t3 -43.5q0 -28 -7 -52t-22.5 -41.5t-40.5 -27.5t-62 -10z" />
<glyph unicode="&#x456;" horiz-adv-x="147" d="M60 487h25v-487h-25v487zM59 636h28v-32h-28v32z" />
<glyph unicode="&#x457;" horiz-adv-x="147" d="M-12 615h28v-32h-28v32zM130 615h28v-32h-28v32zM60 487h25v-487h-25v487z" />
<glyph unicode="&#x458;" horiz-adv-x="135" d="M58 487h25v-595q0 -55 -24.5 -75.5t-68.5 -20.5h-4v22h4q43 0 55.5 21t12.5 62v586zM58 636h28v-32h-28v32z" />
<glyph unicode="&#x459;" horiz-adv-x="565" d="M107 464v-223q0 -99 -19 -163.5t-75 -95.5l-12 19q23 14 38.5 33t25.5 47.5t14 69t4 99.5v237h212v-221h89q42 0 71.5 -9.5t48 -27t26.5 -41.5t8 -53q0 -28 -7 -52.5t-24.5 -43t-47.5 -29t-75 -10.5h-115v464h-162zM383 24q37 0 61.5 8.5t39.5 23.5t21 35t6 44 q0 106 -130 106h-86v-217h88z" />
<glyph unicode="&#x45a;" horiz-adv-x="559" d="M377 24q37 0 62 8.5t40 23.5t21.5 35t6.5 44q0 106 -132 106h-85v-217h87zM264 0v242h-193v-242h-25v487h25v-221h193v221h26v-221h87q43 0 73 -9.5t48.5 -27t26.5 -41.5t8 -53q0 -28 -7 -52.5t-24.5 -43t-47.5 -29t-76 -10.5h-114z" />
<glyph unicode="&#x45b;" horiz-adv-x="353" d="M71 422q17 31 47.5 48t65.5 17q37 0 61.5 -11t38 -29t19 -42.5t5.5 -51.5v-353h-26v343q0 24 -4 46t-15 38t-30.5 25.5t-49.5 9.5q-28 0 -49 -11.5t-35.5 -29.5t-21.5 -41t-7 -46v-334h-25v583h-45v20h45v124h25v-124h211v-20h-211v-161h1z" />
<glyph unicode="&#x45c;" horiz-adv-x="332" d="M150 562l66 143l33 -13l-84 -136zM43 0v487h25v-225h81q14 0 28.5 3t27.5 11t23.5 22t16.5 37l41 152h23l-36 -141q-10 -36 -25.5 -60.5t-43.5 -32.5q35 -8 50 -33.5t25 -61.5l40 -158h-26l-40 161q-13 49 -37.5 64t-59.5 15h-88v-240h-25z" />
<glyph unicode="&#x45e;" horiz-adv-x="304" d="M151 46l122 441h26l-166 -595q-10 -39 -34.5 -66t-68.5 -27h-7v23h7q33 0 52.5 23.5t29.5 63.5l24 96l-129 482h27l115 -441h2zM153 576q32 0 58 20.5t34 62.5h23q-3 -19 -11 -38t-22 -34.5t-34.5 -25t-47.5 -9.5t-47 10t-33.5 25.5t-21.5 34.5t-11 37h22q7 -38 33 -60.5 t58 -22.5z" />
<glyph unicode="&#x45f;" horiz-adv-x="348" d="M280 487h26v-487h-117v-137h-27v137h-118v487h26v-463h210v463z" />
<glyph unicode="&#x490;" horiz-adv-x="346" d="M53 696h251v113h25v-136h-251v-673h-25v696z" />
<glyph unicode="&#x491;" horiz-adv-x="299" d="M45 487h214v110h26v-133h-214v-464h-26v487z" />
<glyph unicode="&#x4d9;" horiz-adv-x="334" d="M161 -7q-59 0 -93 31.5t-34 91.5v127h237v26q0 18 -0.5 39t-1.5 40.5t-3 36t-5 25.5q-8 25 -30.5 43.5t-63.5 18.5q-26 0 -45.5 -8t-32 -21.5t-19.5 -31.5t-9 -37l-24 5q5 56 41 86t86 30q30 0 51.5 -7t36.5 -19t24 -27t13 -31q3 -12 5 -31.5t3 -41.5t1 -45v-43 q0 -27 -0.5 -55t-2 -53t-4.5 -45t-7 -32q-12 -33 -41.5 -52.5t-81.5 -19.5zM259 74q8 20 9.5 57.5t2.5 88.5h-211v-103q0 -43 24 -71.5t78 -28.5q28 0 55.5 11.5t41.5 45.5z" />
<glyph unicode="&#x1e80;" horiz-adv-x="582" d="M290 632l-35 -187l-83 -445h-39l-125 696h24l78 -442l41 -235h2l43 233l83 444h25l84 -451l42 -226h2l39 225l80 452h24l-125 -696h-39l-84 446l-35 186h-2zM339 763l-134 88l25 26l120 -102z" />
<glyph unicode="&#x1e81;" horiz-adv-x="512" d="M258 436l-103 -435h-27l-117 486h26l104 -439h2l103 439h27l103 -439h2l104 439h26l-117 -486h-27l-104 435h-2zM276 556l-84 136l33 13l66 -143z" />
<glyph unicode="&#x1e82;" horiz-adv-x="582" d="M290 632l-35 -187l-83 -445h-39l-125 696h24l78 -442l41 -235h2l43 233l83 444h25l84 -451l42 -226h2l39 225l80 452h24l-125 -696h-39l-84 446l-35 186h-2zM236 745l120 102l25 -26l-134 -88z" />
<glyph unicode="&#x1e83;" horiz-adv-x="512" d="M258 436l-103 -435h-27l-117 486h26l104 -439h2l103 439h27l103 -439h2l104 439h26l-117 -486h-27l-104 435h-2zM227 562l66 143l33 -13l-84 -136z" />
<glyph unicode="&#x1e84;" horiz-adv-x="582" d="M290 632l-35 -187l-83 -445h-39l-125 696h24l78 -442l41 -235h2l43 233l83 444h25l84 -451l42 -226h2l39 225l80 452h24l-125 -696h-39l-84 446l-35 186h-2zM206 773h28v-32h-28v32zM348 773h28v-32h-28v32z" />
<glyph unicode="&#x1e85;" horiz-adv-x="512" d="M258 436l-103 -435h-27l-117 486h26l104 -439h2l103 439h27l103 -439h2l104 439h26l-117 -486h-27l-104 435h-2zM175 618h28v-32h-28v32zM317 618h28v-32h-28v32z" />
<glyph unicode="&#x1ef2;" horiz-adv-x="337" d="M167 326l131 370h27l-146 -403v-293h-25v293l-146 403h25l132 -370h2zM187 733l-134 88l25 26l120 -102z" />
<glyph unicode="&#x1ef3;" horiz-adv-x="304" d="M151 46l122 441h26l-166 -595q-10 -39 -34.5 -66t-68.5 -27h-7v23h7q33 0 52.5 23.5t29.5 63.5l24 96l-129 482h27l115 -441h2zM183 556l-84 136l33 13l66 -143z" />
<glyph unicode="&#x2013;" horiz-adv-x="500" d="M20 272h460v-26h-460v26z" />
<glyph unicode="&#x2014;" horiz-adv-x="1000" d="M20 272h961v-26h-961v26z" />
<glyph unicode="&#x2015;" horiz-adv-x="1000" d="M20 272h961v-26h-961v26z" />
<glyph unicode="&#x2018;" horiz-adv-x="131" d="M70 701h18l-17 -82h9v-36h-36v36z" />
<glyph unicode="&#x2019;" horiz-adv-x="131" d="M62 583h-18l17 82h-9v36h36v-36z" />
<glyph unicode="&#x201a;" horiz-adv-x="107" d="M48 -82h-18l17 82h-9v36h36v-36z" />
<glyph unicode="&#x201c;" horiz-adv-x="201" d="M60 701h18l-17 -82h9v-36h-36v36zM138 701h18l-17 -82h9v-36h-36v36z" />
<glyph unicode="&#x201d;" horiz-adv-x="201" d="M130 583h-18l17 82h-9v36h36v-36zM52 583h-18l17 82h-9v36h36v-36z" />
<glyph unicode="&#x201e;" horiz-adv-x="185" d="M126 -82h-18l17 82h-9v36h36v-36zM48 -82h-18l17 82h-9v36h36v-36z" />
<glyph unicode="&#x2020;" horiz-adv-x="321" d="M172 -198h-29v622h-141v26h141v246h29v-246h142v-26h-142v-622z" />
<glyph unicode="&#x2021;" horiz-adv-x="321" d="M143 424h-141v26h141v246h29v-246h142v-26h-142v-229h142v-26h-142v-367h-29v367h-141v26h141v229z" />
<glyph unicode="&#x2022;" horiz-adv-x="328" d="M167 187q-30 0 -51 21.5t-21 51.5q0 31 21 52.5t51 21.5q29 0 50 -21.5t21 -52.5t-21 -52t-50 -21z" />
<glyph unicode="&#x2023;" horiz-adv-x="346" d="M314 277l-233 -131v251z" />
<glyph unicode="&#x2026;" horiz-adv-x="513" d="M36 0v38h36v-38h-36zM228 0v38h36v-38h-36zM428 0v38h36v-38h-36z" />
<glyph unicode="&#x2030;" horiz-adv-x="728" d="M464 347q0 23 -16 36t-42 13q-27 0 -43 -13t-16 -36v-279q0 -22 16 -35t43 -13q26 0 42 13t16 35v279zM406 -4q-34 0 -59 17.5t-25 54.5v279q0 38 25 55t59 17q33 0 58 -17t25 -55v-279q0 -37 -25 -54.5t-58 -17.5zM175 627q0 23 -16 36t-42 13q-27 0 -43 -13t-16 -36 v-279q0 -22 16 -35t43 -13q26 0 42 13t16 35v279zM117 276q-34 0 -59 17.5t-25 54.5v279q0 38 25 55t59 17q33 0 58 -17t25 -55v-279q0 -37 -25 -54.5t-58 -17.5zM103 -17h-25l314 731h25zM668 347q0 23 -16 36t-42 13q-27 0 -43 -13t-16 -36v-279q0 -22 16 -35t43 -13 q26 0 42 13t16 35v279zM610 -4q-34 0 -59 17.5t-25 54.5v279q0 38 25 55t59 17q33 0 58 -17t25 -55v-279q0 -37 -25 -54.5t-58 -17.5z" />
<glyph unicode="&#x2039;" horiz-adv-x="188" d="M141 46l-107 186l107 186h27l-106 -186l106 -186h-27z" />
<glyph unicode="&#x203a;" horiz-adv-x="188" d="M34 46l106 186l-106 186h27l107 -186l-107 -186h-27z" />
<glyph unicode="&#x2044;" horiz-adv-x="133" d="M-94 -17h-25l314 731h25z" />
<glyph unicode="&#x2070;" horiz-adv-x="221" d="M169 717q0 23 -16 36t-42 13q-27 0 -43 -13t-16 -36v-279q0 -22 16 -35t43 -13q26 0 42 13t16 35v279zM111 366q-34 0 -59 17.5t-25 54.5v279q0 38 25 55t59 17q33 0 58 -17t25 -55v-279q0 -37 -25 -54.5t-58 -17.5z" />
<glyph unicode="&#x2074;" horiz-adv-x="221" d="M171 370h-23v73h-133v21l94 321h26l-94 -317h107v113h23v-113h39v-25h-39v-73z" />
<glyph unicode="&#x2075;" horiz-adv-x="221" d="M202 452q0 -14 -3.5 -29.5t-13 -28t-26 -20.5t-42.5 -8q-15 0 -30 4.5t-26 14.5t-18 26t-7 39l27 3q0 -28 12.5 -46t42.5 -18q34 0 46.5 19t12.5 44v108q0 29 -17 41.5t-43 12.5q-17 0 -32 -7t-21 -19h-24v198h162v-23h-138v-140q11 6 26 10.5t32 4.5q35 0 57.5 -18.5 t22.5 -52.5v-115z" />
<glyph unicode="&#x2076;" horiz-adv-x="221" d="M169 533q0 21 -16 34.5t-42 13.5q-28 0 -43.5 -17.5t-15.5 -40.5v-86q0 -22 16 -35t43 -13q26 0 42 13t16 35v96zM27 517q0 18 2.5 29.5t7.5 22.5l90 216h26l-77 -189q8 4 18 6.5t19 2.5q32 0 56.5 -17.5t24.5 -54.5v-95q0 -37 -25 -54.5t-58 -17.5q-34 0 -59 17.5 t-25 54.5v79z" />
<glyph unicode="&#x2077;" horiz-adv-x="201" d="M39 763v-51h-23v74h175v-18l-125 -398h-25l123 393h-125z" />
<glyph unicode="&#x2078;" horiz-adv-x="221" d="M170 717q0 23 -16 36t-42 13q-27 0 -43 -13t-16 -36v-72q0 -22 16 -35.5t43 -13.5q26 0 42 13.5t16 35.5v72zM170 525q0 22 -15.5 35t-42.5 14q-27 0 -43 -13t-16 -36v-87q0 -22 16 -35t43 -13q26 0 42 13t16 35v87zM112 366q-34 0 -59 17.5t-25 54.5v87q0 41 32 59 q-32 17 -32 61v72q0 38 25 55t59 17q33 0 58 -17t25 -55v-72q0 -23 -8.5 -37.5t-23.5 -23.5q14 -9 23 -23t9 -36v-87q0 -37 -25 -54.5t-58 -17.5z" />
<glyph unicode="&#x2079;" horiz-adv-x="221" d="M52 623q0 -23 16.5 -36t42.5 -13q28 0 43 18t15 41v84q0 23 -16 36t-42 13t-42.5 -13t-16.5 -36v-94zM194 638q0 -17 -2.5 -29t-7.5 -23l-90 -216h-26l77 188q-8 -3 -18 -5t-18 -2q-33 0 -57.5 17t-24.5 55v94q0 38 25 55t59 17q33 0 58 -17t25 -55v-79z" />
<glyph unicode="&#x207a;" horiz-adv-x="221" d="M122 443h-24v91h-89v24h89v89h24v-89h88v-24h-88v-91z" />
<glyph unicode="&#x207b;" horiz-adv-x="201" d="M28 556h152v-27h-152v27z" />
<glyph unicode="&#x207c;" horiz-adv-x="221" d="M9 595h201v-24h-201v24zM9 513h201v-24h-201v24z" />
<glyph unicode="&#x207d;" horiz-adv-x="142" d="M115 300q-17 23 -31 51.5t-24 61t-16 67t-6 68.5q0 64 20 131.5t56 117.5l13 -8q-30 -54 -48 -115.5t-18 -121.5q0 -66 18.5 -129.5t47.5 -114.5z" />
<glyph unicode="&#x207e;" horiz-adv-x="142" d="M37 308q29 51 47.5 114.5t18.5 129.5q0 60 -18 121.5t-48 115.5l13 8q37 -51 56.5 -118t19.5 -131q0 -34 -6 -68.5t-16 -67t-24.5 -61t-30.5 -51.5z" />
<glyph unicode="&#x207f;" horiz-adv-x="244" d="M53 566q11 18 29.5 29.5t44.5 11.5q27 0 44 -7.5t27 -20t14 -29t4 -34.5v-236h-27v230q0 29 -12 50.5t-51 21.5q-20 0 -33.5 -7.5t-22.5 -19t-13 -26t-4 -28.5v-221h-25v321h25v-35z" />
<glyph unicode="&#x2080;" horiz-adv-x="221" d="M169 257q0 23 -16 36t-42 13q-27 0 -43 -13t-16 -36v-279q0 -22 16 -35t43 -13q26 0 42 13t16 35v279zM111 -94q-34 0 -59 17.5t-25 54.5v279q0 38 25 55t59 17q33 0 58 -17t25 -55v-279q0 -37 -25 -54.5t-58 -17.5z" />
<glyph unicode="&#x2081;" horiz-adv-x="180" d="M110 295l-71 -44v30l74 44h20v-415h-23v385z" />
<glyph unicode="&#x2082;" horiz-adv-x="221" d="M56 -66h139v-24h-169v23l127 232q11 20 15.5 37.5t4.5 38.5q0 25 -13.5 45t-48.5 20q-22 0 -40 -15t-18 -46l-27 4q0 36 25 58t61 22q46 0 67.5 -24t21.5 -64q0 -29 -7 -49t-19 -42z" />
<glyph unicode="&#x2083;" horiz-adv-x="221" d="M112 329q24 0 39.5 -6.5t25 -18.5t13.5 -28t4 -35v-31q0 -21 -4 -45.5t-28 -36.5q20 -11 26 -30t6 -41v-65q0 -14 -4 -29.5t-13.5 -28t-26.5 -20.5t-43 -8q-15 0 -30 4.5t-26 14.5t-18 26t-7 39l27 3q0 -28 12.5 -46t43.5 -18q33 0 45.5 20t12.5 43v64q0 32 -15 45.5 t-35 13.5h-22v26h23q20 0 34.5 12.5t14.5 43.5v49q0 24 -12.5 42t-44.5 18q-29 0 -43 -18t-14 -43l-26 5q2 34 22.5 56.5t62.5 22.5z" />
<glyph unicode="&#x2084;" horiz-adv-x="221" d="M171 -90h-23v73h-133v21l94 321h26l-94 -317h107v113h23v-113h39v-25h-39v-73z" />
<glyph unicode="&#x2085;" horiz-adv-x="221" d="M202 -8q0 -14 -3.5 -29.5t-13 -28t-26 -20.5t-42.5 -8q-15 0 -30 4.5t-26 14.5t-18 26t-7 39l27 3q0 -28 12.5 -46t42.5 -18q34 0 46.5 19t12.5 44v108q0 29 -17 41.5t-43 12.5q-17 0 -32 -7t-21 -19h-24v198h162v-23h-138v-140q11 6 26 10.5t32 4.5q35 0 57.5 -18.5 t22.5 -52.5v-115z" />
<glyph unicode="&#x2086;" horiz-adv-x="221" d="M169 73q0 21 -16 34.5t-42 13.5q-28 0 -43.5 -17.5t-15.5 -40.5v-86q0 -22 16 -35t43 -13q26 0 42 13t16 35v96zM27 57q0 18 2.5 29.5t7.5 22.5l90 216h26l-77 -189q8 4 18 6.5t19 2.5q32 0 56.5 -17.5t24.5 -54.5v-95q0 -37 -25 -54.5t-58 -17.5q-34 0 -59 17.5 t-25 54.5v79z" />
<glyph unicode="&#x2087;" horiz-adv-x="201" d="M39 303v-51h-23v74h175v-18l-125 -398h-25l123 393h-125z" />
<glyph unicode="&#x2088;" horiz-adv-x="221" d="M170 257q0 23 -16 36t-42 13q-27 0 -43 -13t-16 -36v-72q0 -22 16 -35.5t43 -13.5q26 0 42 13.5t16 35.5v72zM170 65q0 22 -15.5 35t-42.5 14q-27 0 -43 -13t-16 -36v-87q0 -22 16 -35t43 -13q26 0 42 13t16 35v87zM112 -94q-34 0 -59 17.5t-25 54.5v87q0 41 32 59 q-32 17 -32 61v72q0 38 25 55t59 17q33 0 58 -17t25 -55v-72q0 -23 -8.5 -37.5t-23.5 -23.5q14 -9 23 -23t9 -36v-87q0 -37 -25 -54.5t-58 -17.5z" />
<glyph unicode="&#x2089;" horiz-adv-x="221" d="M52 163q0 -23 16.5 -36t42.5 -13q28 0 43 18t15 41v84q0 23 -16 36t-42 13t-42.5 -13t-16.5 -36v-94zM194 178q0 -17 -2.5 -29t-7.5 -23l-90 -216h-26l77 188q-8 -3 -18 -5t-18 -2q-33 0 -57.5 17t-24.5 55v94q0 38 25 55t59 17q33 0 58 -17t25 -55v-79z" />
<glyph unicode="&#x208a;" horiz-adv-x="221" d="M122 73h-24v91h-89v24h89v89h24v-89h88v-24h-88v-91z" />
<glyph unicode="&#x208b;" horiz-adv-x="201" d="M28 186h152v-27h-152v27z" />
<glyph unicode="&#x208c;" horiz-adv-x="221" d="M9 225h201v-24h-201v24zM9 143h201v-24h-201v24z" />
<glyph unicode="&#x208d;" horiz-adv-x="142" d="M115 -159q-17 23 -31 51.5t-24 61t-16 67t-6 68.5q0 64 20 131.5t56 117.5l13 -8q-30 -54 -48 -115.5t-18 -121.5q0 -66 18.5 -129.5t47.5 -114.5z" />
<glyph unicode="&#x208e;" horiz-adv-x="142" d="M37 -151q29 51 47.5 114.5t18.5 129.5q0 60 -18 121.5t-48 115.5l13 8q37 -51 56.5 -118t19.5 -131q0 -34 -6 -68.5t-16 -67t-24.5 -61t-30.5 -51.5z" />
<glyph unicode="&#x20ab;" horiz-adv-x="340" d="M156 596h97v78h24v-78h49v-22h-49v-467h-24v34q-14 -17 -36.5 -28t-52.5 -11q-17 0 -34 4.5t-30.5 15t-22.5 28t-11 43.5q-2 20 -2 38v35v57q0 37 1 65t8 48q8 23 31 41.5t65 18.5q18 0 32 -4.5t24 -11.5t17 -15t11 -15v124h-97v22zM165 125q41 0 64.5 24.5t23.5 64.5 v159q0 18 -5.5 36t-16 32.5t-26.5 23t-37 8.5q-29 0 -48 -15t-26 -38q-3 -9 -4 -24t-1.5 -33.5t-0.5 -38v-37.5q0 -35 1 -67.5t5 -44.5q9 -29 27 -39.5t44 -10.5zM282 24v-24h-217v24h217z" />
<glyph unicode="&#x20ac;" horiz-adv-x="340" d="M15 321h38v77h-38v21h38v145q0 37 12 63.5t31.5 43t44 24t50.5 7.5q25 0 48.5 -6.5t42.5 -20.5t32 -36t16 -53l-24 -6q-3 25 -13 44t-26 31t-35.5 18t-40.5 6q-48 0 -81 -28t-33 -88v-144h187v-21h-187v-77h187v-21h-187v-171q0 -30 9.5 -51.5t25 -35t36 -20t43.5 -6.5 q21 0 41 5.5t35.5 17.5t25.5 30.5t13 44.5l26 -5q-3 -32 -16.5 -54t-33 -36t-43.5 -20t-48 -6q-26 0 -50.5 7.5t-44 23.5t-31.5 42t-12 64v170h-38v21z" />
<glyph unicode="&#x2103;" horiz-adv-x="603" d="M418 16q23 0 45.5 7t40 22t28.5 39.5t11 59.5l25 -5q0 -41 -13.5 -69t-35 -45t-48 -24.5t-53.5 -7.5q-69 0 -110 36t-41 111v413q0 75 41 112t110 37q28 0 55 -7.5t48 -25t34 -45t13 -66.5l-25 -6q0 34 -10 58t-27.5 39.5t-40 22.5t-47.5 7q-59 0 -92.5 -33.5 t-33.5 -93.5v-413q0 -61 33.5 -92t92.5 -31zM131 670q-27 0 -46 -19t-19 -47q0 -29 19 -47.5t46 -18.5q28 0 46.5 18.5t18.5 47.5q0 28 -18.5 47t-46.5 19zM131 692q37 0 62 -25.5t25 -62.5q0 -38 -25 -63t-62 -25q-36 0 -61.5 25t-25.5 63q0 37 25.5 62.5t61.5 25.5z" />
<glyph unicode="&#x2105;" horiz-adv-x="512" d="M370 348q41 0 60 -15t27 -37q3 -10 5 -24.5t3 -31.5t1 -35v-34v-15q0 -18 -0.5 -37t-2.5 -42t-11 -39t-22 -26t-28.5 -14.5t-31.5 -4.5q-43 0 -63.5 16.5t-28.5 44.5q-2 7 -3.5 20.5t-2 29t-0.5 32.5v31q0 38 1 75t8 54q9 23 31.5 37.5t57.5 14.5zM370 326 q-18 0 -36.5 -8t-28.5 -29q-6 -16 -7 -49t-1 -74v-13q0 -72 7 -97q7 -19 23 -30t43 -11q23 0 42 11.5t25 37.5q4 11 5 37.5t1 58.5q0 16 -0.5 35t-1 36t-2 31t-3.5 21q-6 23 -24.5 33t-41.5 10zM142 703q40 0 65 -22.5t25 -67.5l-24 -4q0 34 -17 53t-52 19q-19 0 -35.5 -8 t-25.5 -31q-5 -13 -7.5 -46t-3.5 -75v-13q0 -25 1 -53.5t7 -46.5q13 -38 63 -38q32 0 50 17.5t20 54.5l24 -5q-10 -89 -93 -89q-44 0 -63.5 19t-25.5 42q-2 9 -3.5 22t-2 28.5t-0.5 32v30.5q0 37 2.5 73.5t8.5 53.5q9 23 29.5 38.5t57.5 15.5zM106 -17h-25l314 731h25z" />
<glyph unicode="&#x2109;" horiz-adv-x="578" d="M285 696h276v-23h-251v-302h223v-23h-223v-348h-25v696zM128 670q-27 0 -46 -19t-19 -47q0 -29 19 -47.5t46 -18.5q28 0 46.5 18.5t18.5 47.5q0 28 -18.5 47t-46.5 19zM128 692q37 0 62 -25.5t25 -62.5q0 -38 -25 -63t-62 -25q-36 0 -61.5 25t-25.5 63q0 37 25.5 62.5 t61.5 25.5z" />
<glyph unicode="&#x2113;" horiz-adv-x="350" d="M319 113q-20 -57 -48.5 -90t-67.5 -33q-51 0 -82 39.5t-31 128.5v68q-14 -14 -26.5 -24.5t-25.5 -20.5l-2 26q10 8 24 20t31 31v241q0 57 9 95.5t23.5 61.5t33.5 33t39 10q15 0 29 -5.5t25.5 -19.5t18 -37.5t6.5 -60.5q0 -81 -44.5 -164t-116.5 -168v-73q0 -87 24 -122.5 t62 -35.5q33 0 56 30.5t40 79.5zM114 279q76 88 105.5 164t29.5 131q0 43 -12 72t-41 29q-16 0 -31 -10t-26 -31.5t-18 -55t-7 -79.5v-220z" />
<glyph unicode="&#x2116;" horiz-adv-x="648" d="M417 306v23h180v-23h-180zM75 623v-623h-25v696h24l251 -625h3v625h24v-696h-24l-251 623h-2zM508 700q38 0 57.5 -14t27.5 -34q8 -21 9 -54t1 -64v-15q0 -29 -3 -72q-2 -22 -10.5 -37t-21.5 -24.5t-28.5 -13.5t-31.5 -4q-43 0 -63.5 15.5t-28.5 41.5q-2 8 -3.5 20.5 t-2 27t-0.5 29.5v28q0 34 1 67t8 51q8 22 31 37t58 15zM507 675q-19 0 -36 -6.5t-26 -26.5q-6 -15 -7.5 -43t-1.5 -66v-10q0 -35 1.5 -59.5t5.5 -35.5q6 -17 20.5 -26.5t43.5 -9.5q21 0 39 9.5t25 31.5q4 11 5 37t1 54q0 15 -0.5 32t-1.5 32.5t-2.5 28.5t-3.5 20 q-6 20 -22.5 29t-39.5 9z" />
<glyph unicode="&#x2117;" horiz-adv-x="703" d="M379 534q60 0 83 -32.5t23 -80.5q0 -55 -23 -88t-84 -33h-64v-163h-24v397h89zM314 512v-190h63q44 0 64 23.5t20 74.5q0 41 -17.5 66.5t-66.5 25.5h-63zM363 -8q-74 0 -130 26.5t-94 73.5t-57.5 110.5t-19.5 138.5t19.5 139t57.5 111.5t94 74t130 26.5q73 0 129 -26.5 t94 -74t58 -111.5t20 -139t-20 -138.5t-58 -110.5t-94 -73.5t-129 -26.5zM363 669q-69 0 -120.5 -26t-86 -70.5t-52 -104t-17.5 -127.5q0 -72 19 -131.5t54.5 -103t86.5 -67.5t116 -24q66 0 117.5 24.5t86.5 68t53.5 103t18.5 130.5t-18.5 131t-53.5 104t-86.5 68.5 t-117.5 24.5z" />
<glyph unicode="&#x2122;" horiz-adv-x="574" d="M502 630l-110 -253h-15l-111 260h-3v-317h-21v375h21l122 -286l122 286h19v-375h-21v310h-3zM127 320h-22v353h-84v23h190v-23h-84v-353z" />
<glyph unicode="&#x2126;" horiz-adv-x="396" d="M304 24h61v-24h-105v26q67 33 67 111v426q0 30 -11.5 52t-30 36t-41.5 21t-46 7q-27 0 -50.5 -8.5t-41 -24.5t-27.5 -39.5t-10 -53.5v-418q0 -39 18 -67.5t45 -41.5v-26h-99v24h58v2q-47 28 -47 110v418q0 37 13 65t34.5 46.5t49 27.5t57.5 9q29 0 56.5 -7.5t49.5 -24 t35 -43t13 -63.5v-428q0 -42 -13.5 -68.5t-35.5 -41.5z" />
<glyph unicode="&#x212b;" horiz-adv-x="367" d="M289 196h-213l-44 -196h-24l156 696h37l158 -696h-25zM142 493l-61 -274h203l-62 276l-39 178h-2zM180 710q-30 0 -52 22.5t-22 54.5q0 34 22 56t52 22q32 0 54 -22t22 -56q0 -32 -22 -54.5t-54 -22.5zM180 846q-22 0 -38.5 -17t-16.5 -42q0 -23 16.5 -40.5t38.5 -17.5 q23 0 40 17.5t17 40.5q0 25 -17 42t-40 17z" />
<glyph unicode="&#x212e;" horiz-adv-x="776" d="M179 288v-181q15 -27 38 -46t51 -32t59 -19t61 -6q61 0 115.5 25t96.5 69h35q-44 -53 -109.5 -81t-137.5 -28q-65 0 -123 23.5t-101 64.5t-68 96t-25 118q0 62 25 117.5t68 97t101 66t123 24.5q68 0 126 -22.5t100 -63.5t66 -97.5t25 -124.5h-526zM600 477 q-15 25 -38.5 45t-51.5 34t-59 21.5t-62 7.5q-55 0 -111 -28.5t-99 -79.5v-173h421v173z" />
<glyph unicode="&#x2153;" horiz-adv-x="530" d="M120 665l-71 -44v30l74 44h20v-415h-23v385zM105 -17h-25l314 731h25zM399 419q24 0 39.5 -6.5t25 -18.5t13.5 -28t4 -35v-31q0 -11 -0.5 -22.5t-3.5 -23t-9.5 -21t-18.5 -15.5q20 -11 26 -30t6 -41v-65q0 -14 -4 -29.5t-13.5 -28t-26.5 -20.5t-43 -8q-15 0 -30 4.5 t-26 14.5t-18 26t-7 39l27 3q0 -28 12.5 -46t43.5 -18q33 0 45.5 20t12.5 43v64q0 32 -15 45.5t-35 13.5h-22v26h23q20 0 34.5 12.5t14.5 43.5v49q0 24 -12.5 42t-44.5 18q-29 0 -43 -18t-14 -43l-26 5q2 34 22.5 56.5t62.5 22.5z" />
<glyph unicode="&#x2154;" horiz-adv-x="530" d="M60 304h139v-24h-169v23l127 232q11 20 15.5 37.5t4.5 38.5q0 25 -13.5 45t-48.5 20q-22 0 -40 -15t-18 -46l-27 4q0 36 25 58t61 22q46 0 67.5 -24t21.5 -64q0 -29 -7 -49t-19 -42zM129 -17h-25l314 731h25zM418 419q24 0 39.5 -6.5t25 -18.5t13.5 -28t4 -35v-31 q0 -11 -0.5 -22.5t-3.5 -23t-9.5 -21t-18.5 -15.5q20 -11 26 -30t6 -41v-65q0 -14 -4 -29.5t-13.5 -28t-26.5 -20.5t-43 -8q-15 0 -30 4.5t-26 14.5t-18 26t-7 39l27 3q0 -28 12.5 -46t43.5 -18q33 0 45.5 20t12.5 43v64q0 32 -15 45.5t-35 13.5h-22v26h23q20 0 34.5 12.5 t14.5 43.5v49q0 24 -12.5 42t-44.5 18q-29 0 -43 -18t-14 -43l-26 5q2 34 22.5 56.5t62.5 22.5z" />
<glyph unicode="&#x2155;" horiz-adv-x="530" d="M116 665l-71 -44v30l74 44h20v-415h-23v385zM92 -17h-25l314 731h25zM484 82q0 -14 -3.5 -29.5t-13 -28t-26 -20.5t-42.5 -8q-15 0 -30 4.5t-26 14.5t-18 26t-7 39l27 3q0 -28 12.5 -46t42.5 -18q34 0 46.5 19t12.5 44v108q0 29 -17 41.5t-43 12.5q-17 0 -32 -7t-21 -19 h-24v198h162v-23h-138v-140q11 6 26 10.5t32 4.5q35 0 57.5 -18.5t22.5 -52.5v-115z" />
<glyph unicode="&#x2156;" horiz-adv-x="530" d="M55 304h139v-24h-169v23l127 232q11 20 15.5 37.5t4.5 38.5q0 25 -13.5 45t-48.5 20q-22 0 -40 -15t-18 -46l-27 4q0 36 25 58t61 22q46 0 67.5 -24t21.5 -64q0 -29 -7 -49t-19 -42zM127 -17h-25l314 731h25zM504 82q0 -14 -3.5 -29.5t-13 -28t-26 -20.5t-42.5 -8 q-15 0 -30 4.5t-26 14.5t-18 26t-7 39l27 3q0 -28 12.5 -46t42.5 -18q34 0 46.5 19t12.5 44v108q0 29 -17 41.5t-43 12.5q-17 0 -32 -7t-21 -19h-24v198h162v-23h-138v-140q11 6 26 10.5t32 4.5q35 0 57.5 -18.5t22.5 -52.5v-115z" />
<glyph unicode="&#x2157;" horiz-adv-x="530" d="M111 699q24 0 39.5 -6.5t25 -18.5t13.5 -28t4 -35v-31q0 -11 -0.5 -22.5t-3.5 -23t-9.5 -21t-18.5 -15.5q20 -11 26 -30t6 -41v-65q0 -14 -4 -29.5t-13.5 -28t-26.5 -20.5t-43 -8q-15 0 -30 4.5t-26 14.5t-18 26t-7 39l27 3q0 -28 12.5 -46t43.5 -18q33 0 45.5 20 t12.5 43v64q0 32 -15 45.5t-35 13.5h-22v26h23q20 0 34.5 12.5t14.5 43.5v49q0 24 -12.5 42t-44.5 18q-29 0 -43 -18t-14 -43l-26 5q2 34 22.5 56.5t62.5 22.5zM116 -17h-25l314 731h25zM504 82q0 -14 -3.5 -29.5t-13 -28t-26 -20.5t-42.5 -8q-15 0 -30 4.5t-26 14.5t-18 26 t-7 39l27 3q0 -28 12.5 -46t42.5 -18q34 0 46.5 19t12.5 44v108q0 29 -17 41.5t-43 12.5q-17 0 -32 -7t-21 -19h-24v198h162v-23h-138v-140q11 6 26 10.5t32 4.5q35 0 57.5 -18.5t22.5 -52.5v-115z" />
<glyph unicode="&#x2158;" horiz-adv-x="530" d="M181 280h-23v73h-133v21l94 321h26l-94 -317h107v113h23v-113h39v-25h-39v-73zM128 -17h-25l314 731h25zM505 82q0 -14 -3.5 -29.5t-13 -28t-26 -20.5t-42.5 -8q-15 0 -30 4.5t-26 14.5t-18 26t-7 39l27 3q0 -28 12.5 -46t42.5 -18q34 0 46.5 19t12.5 44v108 q0 29 -17 41.5t-43 12.5q-17 0 -32 -7t-21 -19h-24v198h162v-23h-138v-140q11 6 26 10.5t32 4.5q35 0 57.5 -18.5t22.5 -52.5v-115z" />
<glyph unicode="&#x2159;" horiz-adv-x="530" d="M124 665l-71 -44v30l74 44h20v-415h-23v385zM131 -17h-25l314 731h25zM452 163q0 21 -16 34.5t-42 13.5q-28 0 -43.5 -17.5t-15.5 -40.5v-86q0 -22 16 -35t43 -13q26 0 42 13t16 35v96zM310 147q0 18 2.5 29.5t7.5 22.5l90 216h26l-77 -189q8 4 18 6.5t19 2.5 q32 0 56.5 -17.5t24.5 -54.5v-95q0 -37 -25 -54.5t-58 -17.5q-34 0 -59 17.5t-25 54.5v79z" />
<glyph unicode="&#x215a;" horiz-adv-x="530" d="M201 362q0 -14 -3.5 -29.5t-13 -28t-26 -20.5t-42.5 -8q-15 0 -30 4.5t-26 14.5t-18 26t-7 39l27 3q0 -28 12.5 -46t42.5 -18q34 0 46.5 19t12.5 44v108q0 29 -17 41.5t-43 12.5q-17 0 -32 -7t-21 -19h-24v198h162v-23h-138v-140q11 6 26 10.5t32 4.5q35 0 57.5 -18.5 t22.5 -52.5v-115zM147 -17h-25l314 731h25zM469 163q0 21 -16 34.5t-42 13.5q-28 0 -43.5 -17.5t-15.5 -40.5v-86q0 -22 16 -35t43 -13q26 0 42 13t16 35v96zM327 147q0 18 2.5 29.5t7.5 22.5l90 216h26l-77 -189q8 4 18 6.5t19 2.5q32 0 56.5 -17.5t24.5 -54.5v-95 q0 -37 -25 -54.5t-58 -17.5q-34 0 -59 17.5t-25 54.5v79z" />
<glyph unicode="&#x215b;" horiz-adv-x="530" d="M125 665l-71 -44v30l74 44h20v-415h-23v385zM101 -17h-25l314 731h25zM451 347q0 23 -16 36t-42 13q-27 0 -43 -13t-16 -36v-72q0 -22 16 -35.5t43 -13.5q26 0 42 13.5t16 35.5v72zM451 155q0 22 -15.5 35t-42.5 14q-27 0 -43 -13t-16 -36v-87q0 -22 16 -35t43 -13 q26 0 42 13t16 35v87zM393 -4q-34 0 -59 17.5t-25 54.5v87q0 41 32 59q-32 17 -32 61v72q0 38 25 55t59 17q33 0 58 -17t25 -55v-72q0 -23 -8.5 -37.5t-23.5 -23.5q14 -9 23 -23t9 -36v-87q0 -37 -25 -54.5t-58 -17.5z" />
<glyph unicode="&#x215c;" horiz-adv-x="530" d="M123 699q24 0 39.5 -6.5t25 -18.5t13.5 -28t4 -35v-31q0 -11 -0.5 -22.5t-3.5 -23t-9.5 -21t-18.5 -15.5q20 -11 26 -30t6 -41v-65q0 -14 -4 -29.5t-13.5 -28t-26.5 -20.5t-43 -8q-15 0 -30 4.5t-26 14.5t-18 26t-7 39l27 3q0 -28 12.5 -46t43.5 -18q33 0 45.5 20 t12.5 43v64q0 32 -15 45.5t-35 13.5h-22v26h23q20 0 34.5 12.5t14.5 43.5v49q0 24 -12.5 42t-44.5 18q-29 0 -43 -18t-14 -43l-26 5q2 34 22.5 56.5t62.5 22.5zM124 -17h-25l314 731h25zM467 347q0 23 -16 36t-42 13q-27 0 -43 -13t-16 -36v-72q0 -22 16 -35.5t43 -13.5 q26 0 42 13.5t16 35.5v72zM467 155q0 22 -15.5 35t-42.5 14q-27 0 -43 -13t-16 -36v-87q0 -22 16 -35t43 -13q26 0 42 13t16 35v87zM409 -4q-34 0 -59 17.5t-25 54.5v87q0 41 32 59q-32 17 -32 61v72q0 38 25 55t59 17q33 0 58 -17t25 -55v-72q0 -23 -8.5 -37.5t-23.5 -23.5 q14 -9 23 -23t9 -36v-87q0 -37 -25 -54.5t-58 -17.5z" />
<glyph unicode="&#x215d;" horiz-adv-x="530" d="M202 362q0 -14 -3.5 -29.5t-13 -28t-26 -20.5t-42.5 -8q-15 0 -30 4.5t-26 14.5t-18 26t-7 39l27 3q0 -28 12.5 -46t42.5 -18q34 0 46.5 19t12.5 44v108q0 29 -17 41.5t-43 12.5q-17 0 -32 -7t-21 -19h-24v198h162v-23h-138v-140q11 6 26 10.5t32 4.5q35 0 57.5 -18.5 t22.5 -52.5v-115zM122 -17h-25l314 731h25zM468 347q0 23 -16 36t-42 13q-27 0 -43 -13t-16 -36v-72q0 -22 16 -35.5t43 -13.5q26 0 42 13.5t16 35.5v72zM468 155q0 22 -15.5 35t-42.5 14q-27 0 -43 -13t-16 -36v-87q0 -22 16 -35t43 -13q26 0 42 13t16 35v87zM410 -4 q-34 0 -59 17.5t-25 54.5v87q0 41 32 59q-32 17 -32 61v72q0 38 25 55t59 17q33 0 58 -17t25 -55v-72q0 -23 -8.5 -37.5t-23.5 -23.5q14 -9 23 -23t9 -36v-87q0 -37 -25 -54.5t-58 -17.5z" />
<glyph unicode="&#x215e;" horiz-adv-x="530" d="M81 673v-51h-23v74h175v-18l-125 -398h-25l123 393h-125zM90 -17h-25l314 731h25zM446 347q0 23 -16 36t-42 13q-27 0 -43 -13t-16 -36v-72q0 -22 16 -35.5t43 -13.5q26 0 42 13.5t16 35.5v72zM446 155q0 22 -15.5 35t-42.5 14q-27 0 -43 -13t-16 -36v-87q0 -22 16 -35 t43 -13q26 0 42 13t16 35v87zM388 -4q-34 0 -59 17.5t-25 54.5v87q0 41 32 59q-32 17 -32 61v72q0 38 25 55t59 17q33 0 58 -17t25 -55v-72q0 -23 -8.5 -37.5t-23.5 -23.5q14 -9 23 -23t9 -36v-87q0 -37 -25 -54.5t-58 -17.5z" />
<glyph unicode="&#x215f;" horiz-adv-x="311" d="M73 -17h-25l314 731h25zM96 665l-71 -44v30l74 44h20v-415h-23v385z" />
<glyph unicode="&#x2190;" horiz-adv-x="796" d="M744 333v-27h-640l176 -171l-23 -22l-208 208l208 206l23 -21l-176 -173h640z" />
<glyph unicode="&#x2191;" horiz-adv-x="485" d="M252 2h-27v640l-171 -176l-22 23l208 208l206 -208l-21 -23l-173 176v-640z" />
<glyph unicode="&#x2192;" horiz-adv-x="796" d="M690 333l-176 173l23 21l208 -206l-208 -208l-23 22l176 171h-640v27h640z" />
<glyph unicode="&#x2193;" horiz-adv-x="485" d="M252 58l173 176l21 -23l-206 -208l-208 208l22 23l171 -176v640h27v-640z" />
<glyph unicode="&#x2196;" horiz-adv-x="840" d="M752 36l-20 -20l-578 574v-245l-28 1v290h294v-29h-247z" />
<glyph unicode="&#x2198;" horiz-adv-x="840" d="M126 620l20 20l578 -574v244h28v-291h-294v30h247z" />
<glyph unicode="&#x21a9;" horiz-adv-x="840" d="M116 334h528q34 0 57.5 10t38.5 28t21.5 42.5t6.5 52.5v84q0 56 -29 87t-95 31h-59v28h64q41 0 69.5 -11.5t46 -31.5t25.5 -47.5t8 -59.5v-80q0 -74 -39.5 -117.5t-123.5 -43.5h-519l173 -172l-21 -20l-205 206l205 206l21 -20z" />
<glyph unicode="&#x21aa;" horiz-adv-x="840" d="M573 506l21 20l205 -206l-205 -206l-21 20l173 172h-519q-84 0 -123.5 43.5t-39.5 117.5v80q0 32 8 59.5t25.5 47.5t46 31.5t69.5 11.5h64v-28h-59q-66 0 -95 -31t-29 -87v-84q0 -28 6.5 -52.5t21.5 -42.5t38.5 -28t57.5 -10h528z" />
<glyph unicode="&#x21b3;" horiz-adv-x="840" d="M168 334h584l-173 172l20 20l205 -207l-204 -205l-21 20l173 171h-615v387h31v-358z" />
<glyph unicode="&#x21b5;" horiz-adv-x="840" d="M774 692h31v-387h-615l173 -171l-21 -20l-204 205l205 207l20 -20l-173 -172h584v358z" />
<glyph unicode="&#x21de;" horiz-adv-x="485" d="M266 358h116v-29h-116v-118h116v-30h-116v-181h-30v181h-116v30h116v118h-116v29h116v277l-171 -171l-20 21l206 206l206 -206l-20 -21l-172 171z" />
<glyph unicode="&#x21df;" horiz-adv-x="485" d="M265 57l172 171l20 -21l-206 -206l-206 206l20 21l171 -171v277h-116v29h116v118h-116v30h116v181h30v-181h116v-30h-116v-118h116v-29h-116z" />
<glyph unicode="&#x21e0;" horiz-adv-x="791" d="M303 333v-27h-199l176 -171l-23 -22l-208 208l208 206l23 -21l-176 -173h199zM351 333h106v-28h-106v28zM507 333h107v-28h-107v28zM664 333h77v-28h-77v28z" />
<glyph unicode="&#x21e1;" horiz-adv-x="470" d="M246 438h-27v199l-171 -176l-22 23l208 208l206 -208l-21 -23l-173 176v-199zM246 390v-106h-28v106h28zM246 234v-107h-28v107h28zM246 77v-77h-28v77h28z" />
<glyph unicode="&#x21e2;" horiz-adv-x="791" d="M686 333l-176 173l23 21l208 -206l-208 -208l-23 22l176 171h-199v27h199zM439 305h-106v28h106v-28zM283 305h-107v28h107v-28zM126 305h-77v28h77v-28z" />
<glyph unicode="&#x21e3;" horiz-adv-x="470" d="M246 55l173 176l21 -23l-206 -208l-208 208l22 23l171 -176v199h27v-199zM218 302v106h28v-106h-28zM218 458v107h28v-107h-28zM218 615v77h28v-77h-28z" />
<glyph unicode="&#x21e4;" horiz-adv-x="756" d="M714 333v-27h-530l176 -171l-23 -22l-208 208l208 206l23 -21l-176 -173h530zM79 528h29v-417h-29v417z" />
<glyph unicode="&#x21e5;" horiz-adv-x="756" d="M610 333l-176 173l23 21l208 -206l-208 -208l-23 22l176 171h-530v27h530zM715 111h-29v417h29v-417z" />
<glyph unicode="&#x21e7;" horiz-adv-x="760" d="M374 655l-294 -304h141v-327h307v327h140zM24 329l350 366l350 -366h-172v-329h-356v329h-172z" />
<glyph unicode="&#x21ea;" horiz-adv-x="774" d="M231 -55v-116h306v116h-306zM206 -31h355v-165h-355v165zM383 655l-294 -304h141v-284h307v284h140zM33 329l350 366l350 -366h-172v-286h-356v286h-172z" />
<glyph unicode="&#x2202;" horiz-adv-x="321" d="M42 211q0 -98 30 -149.5t73 -51.5q28 0 50 25t38 64.5t25 89t12 98.5q-29 63 -56 91t-60 28q-27 0 -47.5 -18t-35 -46t-22 -62.5t-7.5 -68.5zM21 209q0 53 11.5 94t30.5 69t43 42.5t49 14.5q34 0 62.5 -23t54.5 -75q1 88 -11 155t-33.5 112t-51.5 68t-65 23q-7 0 -16 -1 t-17 -3l-1 21q9 3 18 4t17 1q48 0 82.5 -31t56 -81.5t32 -115t10.5 -132.5q0 -85 -11 -152t-30.5 -113.5t-47 -71t-59.5 -24.5q-53 0 -88.5 55.5t-35.5 163.5z" />
<glyph unicode="&#x2207;" horiz-adv-x="367" d="M359 696l-158 -696h-37l-156 696h351zM181 18h2l46 212l99 443h-291l99 -446z" />
<glyph unicode="&#x220f;" horiz-adv-x="404" d="M328 671h-251v-746h-25v771h302v-771h-26v746z" />
<glyph unicode="&#x2211;" horiz-adv-x="286" d="M43 -52h236v-24h-261v23l125 363l-126 364v22h257v-23h-232l125 -363z" />
<glyph unicode="&#x2212;" horiz-adv-x="340" d="M19 281v24h299v-24h-299z" />
<glyph unicode="&#x221a;" horiz-adv-x="368" d="M223 -89h-28l-110 446l-72 -29l-8 22l98 39l105 -437l125 850h26z" />
<glyph unicode="&#x221e;" horiz-adv-x="550" d="M130 333q-18 0 -33.5 -6.5t-27.5 -18t-19 -26.5t-7 -33q0 -40 26 -64t63 -24q15 0 32 8t34 20.5t32.5 28t28.5 30.5q-12 15 -27.5 30t-32.5 27.5t-35 20t-34 7.5zM415 333q-17 0 -34.5 -7.5t-34.5 -20t-32.5 -27.5t-27.5 -30q12 -16 27.5 -31.5t32.5 -28t34 -20t33 -7.5 q37 0 63 24t26 64q0 18 -7 33t-19 26.5t-27.5 18t-33.5 6.5zM415 353q21 0 40.5 -7t34.5 -20.5t24 -33t9 -43.5q0 -27 -9 -47t-24 -33.5t-35 -20.5t-42 -7q-36 0 -70.5 23t-71.5 68q-36 -44 -68 -67.5t-73 -23.5q-44 0 -76 27.5t-32 80.5q0 24 9.5 43.5t24.5 33t34.5 20.5 t39.5 7q34 0 72.5 -23.5t69.5 -65.5q29 38 68.5 63.5t74.5 25.5z" />
<glyph unicode="&#x2227;" horiz-adv-x="340" d="M150 506h25l144 -505h-24l-132 470l-122 -470h-24z" />
<glyph unicode="&#x2228;" horiz-adv-x="340" d="M17 505h24l122 -470l132 470h24l-144 -505h-25z" />
<glyph unicode="&#x2229;" horiz-adv-x="340" d="M40 0h-21v278q0 39 4.5 79.5t20 72.5t44.5 52.5t79 20.5t80 -19t45.5 -50.5t20.5 -72t5 -83.5v-278h-22v278q0 33 -3 68.5t-15.5 65.5t-38.5 49.5t-71 19.5q-44 0 -69.5 -19t-38.5 -48.5t-16.5 -65.5t-3.5 -70v-278z" />
<glyph unicode="&#x222a;" horiz-adv-x="340" d="M40 226q0 -34 3.5 -70t16.5 -65.5t38.5 -48.5t69.5 -19q45 0 71 19.5t38.5 49.5t15.5 65.5t3 68.5v278h22v-278q0 -43 -5 -83.5t-20.5 -72t-45.5 -50.5t-80 -19t-79 20.5t-44.5 52.5t-20 72.5t-4.5 79.5v278h21v-278z" />
<glyph unicode="&#x222b;" horiz-adv-x="234" d="M194 759h14t14 -2l-3 -19q-5 1 -9.5 1.5t-9.5 0.5q-22 0 -36.5 -9t-24 -31.5t-14 -59.5t-5.5 -92q0 -5 -0.5 -31t-1 -62.5t-1 -79t-1 -80.5t-1 -66t-0.5 -36q-1 -97 -4.5 -164.5t-14 -109.5t-30.5 -61t-54 -19q-5 0 -10.5 0.5t-13.5 2.5l3 18q8 -2 13 -2h9q28 0 44 20.5 t23.5 59t10 94.5t4.5 127q1 45 2.5 98t1.5 116q0 12 0.5 37.5t1 57t1.5 65t2 60.5q3 87 22.5 126.5t67.5 39.5z" />
<glyph unicode="&#x2248;" horiz-adv-x="340" d="M234 326q-20 0 -39 6.5t-38 14.5t-37.5 14.5t-36.5 6.5q-15 0 -27.5 -6t-24.5 -23l-18 10q16 26 38.5 34t35.5 8q19 0 37.5 -6.5t36.5 -14.5t37 -14.5t39 -6.5q41 0 63 42l20 -8q-11 -33 -37 -45t-49 -12zM234 186q-20 0 -39 6.5t-38 14.5t-37.5 14.5t-36.5 6.5 q-15 0 -27.5 -6t-24.5 -23l-18 10q16 26 38.5 34t35.5 8q19 0 37.5 -6.5t36.5 -14.5t37 -14.5t39 -6.5q41 0 63 42l20 -8q-11 -33 -37 -45t-49 -12z" />
<glyph unicode="&#x2260;" horiz-adv-x="340" d="M19 368h194l77 106h28l-77 -106h77v-23h-93l-84 -117h177v-23h-194l-78 -109h-28l78 109h-77v23h94l84 117h-178v23z" />
<glyph unicode="&#x2264;" horiz-adv-x="340" d="M20 61v24h298v-24h-298zM19 280v23l299 145v-27l-268 -129l268 -131v-26z" />
<glyph unicode="&#x2265;" horiz-adv-x="340" d="M20 61v24h298v-24h-298zM20 135v26l268 131l-268 129v27l299 -145v-23z" />
<glyph unicode="&#x2303;" horiz-adv-x="795" d="M108 413l289 288l285 -283l-21 -22l-264 260l-267 -264z" />
<glyph unicode="&#x2318;" horiz-adv-x="824" d="M537 475h101q43 0 72 29.5t29 72.5q0 21 -8 39.5t-21.5 32t-32 21.5t-39.5 8t-39.5 -8t-32 -21.5t-21.5 -32t-8 -39.5v-102zM282 475v102q0 21 -8 39.5t-21.5 32t-31.5 21.5t-39 8q-44 0 -73.5 -29t-29.5 -72q0 -44 29 -73t74 -29h100zM537 222v-102q0 -21 8 -40 t21.5 -33t32 -22t39.5 -8q43 0 72 30t29 73q0 21 -8 39.5t-21.5 32.5t-32 22t-39.5 8h-101zM282 222h-100q-45 0 -74 -30t-29 -72q0 -43 29 -73t74 -30q21 0 39 8t31.5 22t21.5 33t8 40v102zM510 246v205h-202v-205h202zM537 246h101q32 0 56 -10.5t39.5 -27.5t23.5 -40 t8 -48q0 -26 -8 -49t-23.5 -40t-39.5 -27.5t-56 -10.5q-30 0 -54 10t-40.5 27.5t-25 40.5t-8.5 49v102h-202v-102q0 -25 -8 -48t-23.5 -40.5t-39.5 -28t-55 -10.5q-30 0 -54 10t-40.5 27t-25.5 40t-9 50q0 25 9 48t25.5 40.5t40.5 27.5t54 10h100v205h-100q-26 0 -49.5 10 t-41 27.5t-28 40t-10.5 48.5t9.5 49t27 40.5t41 27.5t51.5 10q31 0 55 -10t39.5 -27.5t23.5 -40.5t8 -49v-102h202v102q0 26 9.5 49t26.5 40.5t40.5 27.5t51.5 10q31 0 54.5 -10t39.5 -27.5t24.5 -40.5t8.5 -49q0 -25 -10 -48t-27.5 -40t-40.5 -27.5t-49 -10.5h-101v-205z " />
<glyph unicode="&#x2324;" horiz-adv-x="795" d="M711 696v-29h-571v29h571zM149 336l276 295l276 -294l-21 -22l-255 271l-254 -271z" />
<glyph unicode="&#x2325;" horiz-adv-x="1188" d="M519 666h601v-30h-601v30zM41 666h219l399 -638h461v-28h-482l-397 636h-200v30z" />
<glyph unicode="&#x2326;" horiz-adv-x="1107" d="M494 332l-166 -168l-16 17l166 166l-166 166l16 18l166 -167l166 167l16 -18l-165 -166l165 -166l-16 -17zM1043 347l-318 322h-623v-644h623zM742 0h-665v695h664l340 -348z" />
<glyph unicode="&#x232b;" horiz-adv-x="1107" d="M498 164l-16 17l165 166l-165 166l16 18l166 -167l166 167l16 -18l-166 -166l166 -166l-16 -17l-166 168zM433 25h623v644h-623l-318 -322zM77 347l340 348h664v-695h-665z" />
<glyph unicode="&#x235f;" horiz-adv-x="804" d="M752 346q0 -73 -28 -137.5t-76 -112.5t-112.5 -75.5t-137.5 -27.5t-137 27.5t-112 75.5t-75.5 112.5t-27.5 138.5q0 73 27.5 137.5t75.5 112.5t112.5 75.5t138.5 27.5q73 0 137.5 -28t112.5 -76t75.5 -112.5t27.5 -137.5h-1zM693 346q0 61 -23 115t-63 94t-94 63t-115 23 t-115 -23t-94 -63t-63 -94t-23 -115t23 -114.5t63 -93.5t94 -63t115 -23t115 23t94 63t63 93.5t23 114.5zM521 301l26 -169l-157 76l-141 -76l21 165l-118 117l163 32l75 148l80 -146l164 -34z" />
<glyph unicode="&#x23cf;" horiz-adv-x="854" d="M768 227v-136h-702v136h702zM768 314h-702l351 351z" />
<glyph unicode="&#x25a0;" horiz-adv-x="875" d="M756 40h-633v633h633v-633z" />
<glyph unicode="&#x25a1;" horiz-adv-x="841" d="M111 26h625v639h-625v-639zM79 0v693h687v-693h-687z" />
<glyph unicode="&#x25b2;" horiz-adv-x="820" d="M781 176h-702l351 351z" />
<glyph unicode="&#x25b6;" horiz-adv-x="595" d="M138 701l351 -350l-351 -351v701z" />
<glyph unicode="&#x25bc;" horiz-adv-x="820" d="M430 176l-351 351h702z" />
<glyph unicode="&#x25c0;" horiz-adv-x="595" d="M452 0l-351 351l351 350v-701z" />
<glyph unicode="&#x25ca;" horiz-adv-x="337" d="M162 44l114 231l-114 230l-110 -230zM155 9l-126 266l126 265h14l130 -265l-130 -266h-14z" />
<glyph unicode="&#x25cf;" horiz-adv-x="843" d="M744 357q0 -64 -25 -121.5t-68.5 -101t-101 -69t-121.5 -25.5q-65 0 -122.5 25t-101 68.5t-68.5 101t-25 122.5q0 66 26 123.5t69.5 100t101 67.5t120.5 25t120 -25t100.5 -68.5t69.5 -101t26 -121.5z" />
<glyph unicode="&#x25fc;" horiz-adv-x="485" d="M0 485h485v-485h-485v485z" />
<glyph unicode="&#x2602;" horiz-adv-x="780" d="M405 695q55 0 112.5 -27.5t104.5 -73.5t77 -106t30 -124q-16 18 -40 28.5t-50 10.5q-23 0 -45 -9.5t-41 -29.5h-2q-23 39 -75 39q-28 0 -62 -14v-304q0 -42 -25.5 -67.5t-73.5 -25.5q-42 0 -69.5 23.5t-27.5 74.5v13h47v-13q0 -28 13.5 -41t34.5 -13q16 0 26 5t15.5 13 t7.5 18t2 20v296q-14 7 -27 9.5t-25 2.5q-26 0 -46.5 -10t-38.5 -27q-17 20 -40 29.5t-47 9.5q-25 0 -48.5 -9.5t-40.5 -29.5l-1 1q0 64 30.5 123.5t77.5 106t105 74.5t113 28v31h29v-32zM730 363q-1 0 -1 1z" />
<glyph unicode="&#x2605;" horiz-adv-x="814" d="M605 254l39 -258l-239 117l-214 -117l32 251l-181 180l249 48l114 226l123 -223l250 -51z" />
<glyph unicode="&#x2606;" horiz-adv-x="838" d="M608 257l39 -259l-240 117l-218 -119l33 255l-183 182l254 49l113 225l124 -223l254 -51zM727 415l-213 43l-107 193l-98 -196l-212 -40l153 -153l-27 -216l184 99l206 -99l-35 221z" />
<glyph unicode="&#x2610;" horiz-adv-x="841" d="M111 26h625v639h-625v-639zM79 0v693h687v-693h-687z" />
<glyph unicode="&#x2611;" horiz-adv-x="850" d="M704 585q-27 -21 -56.5 -55t-60.5 -75t-60.5 -86.5t-56.5 -90t-49.5 -85t-37.5 -71.5q-43 -9 -67 -20q-8 31 -21 70.5t-28.5 78t-31.5 69.5t-30 44q16 11 35.5 15.5t30.5 4.5q8 0 20.5 -18t25 -46.5t23 -64t15.5 -70.5q30 50 71 108.5t87 114.5t94.5 103.5t92.5 76.5z M114 26h625v638h-625v-638zM82 0v693h687v-693h-687z" />
<glyph unicode="&#x2612;" horiz-adv-x="850" d="M619 575l27 -26l-198 -198l201 -201l-28 -26l-200 201l-200 -203l-26 27l200 200l-200 200l27 26l200 -201zM114 26h625v638h-625v-638zM82 0v693h687v-693h-687z" />
<glyph unicode="&#x2622;" horiz-adv-x="837" d="M418 432q16 0 30.5 -7t25 -18t16.5 -25.5t6 -30.5t-6 -30t-16.5 -24.5t-25 -17t-30.5 -6.5q-31 0 -55.5 22t-24.5 56t23.5 57.5t56.5 23.5zM569 89q-79 -41 -154 -41q-81 0 -148 42l98 170q30 -14 54 -14q20 0 50 14zM364 442q-23 -14 -36 -37.5t-16 -53.5h-197 q0 86 35.5 149t114.5 114zM569 615q72 -40 112 -108t40 -156h-197q-6 62 -55 93zM416 684q-68 0 -128 -26.5t-105 -72t-71 -106t-26 -128.5q0 -70 26.5 -130.5t72 -105.5t106.5 -70.5t129 -25.5q66 0 125.5 26.5t105 71.5t72 103.5t26.5 122.5q0 79 -28.5 142t-75 107 t-106.5 68t-123 24zM418 -17q-77 0 -144 28.5t-117 78t-78.5 117t-28.5 144.5q0 67 26 132t74 117t115.5 84t150.5 32q78 0 146 -28t118 -76.5t78.5 -114t28.5 -141.5q0 -77 -28.5 -145t-78 -118.5t-117 -80t-145.5 -29.5z" />
<glyph unicode="&#x2623;" horiz-adv-x="856" d="M553 462q-13 -27 -37 -43q-44 30 -86 30q-41 0 -89 -30q-14 8 -22 18.5t-15 24.5q32 21 62 32t62 11q64 0 125 -43zM502 120q-7 12 -11.5 25t-6.5 27q88 44 88 124v12t-1 14q11 7 27 8.5t27 1.5q4 -16 4 -37q0 -54 -33.5 -101t-93.5 -74zM351 120q-28 12 -51 30 t-39.5 41.5t-25.5 50t-9 54.5q0 21 4 38h12q22 -2 42 -12v-30q0 -76 88 -120q-2 -14 -7.5 -27.5t-13.5 -24.5zM272 531q0 -68 38 -107.5t111 -48.5v-22q-23 -5 -32.5 -18.5t-9.5 -27.5q0 -5 1 -9.5t3 -9.5l-19 -10q-60 72 -133 72q-29 0 -56.5 -12t-48.5 -32.5t-34 -47.5 t-13 -57q0 -22 6 -56l-11 -5q-8 25 -13.5 50.5t-5.5 50.5q0 29 8 57t26.5 52.5t48 45t73.5 34.5q0 63 11.5 109.5t35 78t59.5 51t86 28.5l5 -15q-136 -39 -136 -151zM583 533q0 109 -118 148l5 16q91 -20 134 -77t43 -155v-16t-1 -17q78 -31 116 -83.5t38 -119.5 q0 -45 -18 -96l-13 4q8 43 8 65q0 30 -12.5 56.5t-33.5 46t-49.5 30.5t-60.5 11q-40 0 -71.5 -19t-55.5 -52l-23 13q3 10 3 20q0 16 -9 27.5t-30 17.5v22q72 9 110 49.5t38 108.5zM428 53q-42 -32 -81 -42.5t-74 -10.5q-26 0 -49 4t-43.5 14t-40 27t-39.5 43l11 8 q68 -60 117 -60q33 0 62 12.5t50.5 33.5t34 49.5t12.5 60.5q0 12 -2.5 30t-15.5 41l22 13q7 -11 17.5 -14.5t20.5 -3.5q18 0 33 17l23 -12q-17 -41 -17 -72t12 -58.5t33 -48.5t48 -33t57 -12q66 0 122 54l12 -8q-19 -26 -38 -42.5t-39.5 -26t-43.5 -13t-50 -3.5 q-38 0 -77.5 10.5t-76.5 42.5z" />
<glyph unicode="&#x262e;" horiz-adv-x="834" d="M410 713q78 0 145.5 -28t117.5 -76.5t78.5 -113.5t28.5 -139q0 -77 -29 -144t-79.5 -116.5t-118.5 -78t-145 -28.5q-73 0 -138.5 29t-115 78.5t-78.5 116t-29 140.5q0 75 28.5 141t78 114.5t115.5 76.5t141 28zM675 204q18 32 28.5 69t10.5 83q0 58 -19 108t-54.5 88.5 t-86 64.5t-113.5 35v-239zM384 413v239q-60 -8 -110 -33t-86 -64.5t-56 -91.5t-20 -112q0 -27 2.5 -47t7.5 -36t12.5 -31.5t18.5 -33.5zM441 338v-289q59 7 107 34t93 75zM384 338l-197 -180q23 -22 45 -40t45 -32.5t49 -24t58 -14.5v291z" />
<glyph unicode="&#x262f;" horiz-adv-x="828" d="M525 174q-21 0 -34.5 15.5t-13.5 33.5q0 23 15.5 37.5t32.5 14.5q22 0 36.5 -16t14.5 -36q0 -22 -15.5 -35.5t-35.5 -13.5zM253 488q0 -20 13 -35t36 -15q22 0 36.5 15t14.5 35q0 18 -14 33.5t-38 15.5q-17 0 -32.5 -13.5t-15.5 -35.5zM50 356q0 82 31.5 148.5t82.5 114 t116 73.5t133 26q82 0 149.5 -29.5t115.5 -79.5t74 -116.5t26 -140.5q0 -82 -29.5 -148.5t-79.5 -114t-115.5 -73t-138.5 -25.5q-81 0 -148.5 30.5t-115.5 81t-74.5 116.5t-26.5 137zM249 649q21 6 42 6q41 0 74.5 -15.5t57 -39t36.5 -51t13 -52.5q0 -51 -19.5 -94.5 t-67.5 -91.5q-21 -21 -29 -51.5t-8 -51.5q0 -74 45.5 -115.5t128.5 -41.5q43 0 85 23.5t75 64.5t53.5 96t20.5 118q0 66 -24.5 128.5t-69.5 110.5t-108 77.5t-141 29.5q-45 0 -87.5 -11.5t-81.5 -34.5z" />
<glyph unicode="&#x2672;" horiz-adv-x="919" d="M668 448l-211 21l60 38l-46 81l-124 -185l-169 98l103 166q11 18 27 28t42 10h243q20 0 27.5 -2.5t14.5 -13.5l53 -87l64 38zM50 421h211l85 -183l-60 35l-31 -28q-16 -15 -16 -29q0 -25 31 -25h192v-211h-185q-32 0 -45 10.5t-23 28.5l-113 208q-7 12 -9.5 25t-2.5 27 q0 26 7 50t25 43zM593 372l172 102l95 -176q9 -18 9 -30q0 -11 -3.5 -20.5t-8.5 -18.5l-108 -194q-9 -16 -15.5 -26.5t-13 -17t-15 -9t-21.5 -2.5h-84v-77l-111 175l110 169v-70h109zM199 504l144 -83l120 181q-19 37 -47.5 61t-71.5 24q-29 0 -48 -28zM311 275l-61 131 h-158l47 -32q-19 -18 -29.5 -42.5t-10.5 -50.5q0 -29 9.5 -46.5t25 -27t34.5 -13t37 -3.5h28q-11 8 -11 24q0 20 19 39l42 38zM448 178h-237q-17 0 -28.5 1t-20 2.5t-16 4t-15.5 5.5l88 -163q9 -16 19.5 -25.5t33.5 -9.5h176v185zM686 582l-59 93q-6 10 -13 13.5t-19 3.5 h-204q31 -7 51.5 -33t38.5 -58l56 -100l-37 -23l159 -15l67 145zM611 368l115 -191q19 2 41 10t41 20.5t31.5 28.5t12.5 34q0 7 -2 13t-4 11l-89 159zM587 206l-81 -128l81 -130v45h96q9 0 20.5 5t20.5 21l103 188q-32 -30 -67.5 -37.5t-88.5 -7.5h-84v44z" />
<glyph unicode="&#x2673;" horiz-adv-x="869" d="M536 0v-59h-16l-74 95l78 98l13 -2v-59h128q36 0 52.5 12t16.5 32q0 19 -16 46l-100 170l67 39l111 -194q23 -39 23 -73q0 -48 -40.5 -76.5t-102.5 -28.5h-140zM393 73v-73h-213q-60 0 -95 28.5t-35 75.5q0 36 24 78l73 131l-46 25l7 13l118 22l42 -112l-8 -15l-47 29 l-64 -116q-13 -24 -13 -43q0 -18 13.5 -30.5t45.5 -12.5h198zM624 400l-121 21l-6 12l49 27l-71 120q-8 14 -19.5 22t-25.5 8t-27 -10t-21 -25l-99 -174l-64 37l106 185q22 38 49.5 54.5t57.5 16.5q31 0 59.5 -18t46.5 -50l73 -129l51 29l6 -14zM452 120h-55v228l-36 -25v57 l42 30h49v-290z" />
<glyph unicode="&#x2674;" horiz-adv-x="869" d="M329 124v46l107 134q14 15 14 33q0 11 -8 20t-23 9q-14 0 -23.5 -11.5t-12.5 -31.5l-52 6q6 42 31 64.5t57 22.5q36 0 60 -20t24 -58q0 -14 -5 -29.5t-16 -29.5l-83 -104h99v-51h-169zM536 0v-59h-16l-74 95l78 98l13 -2v-59h128q36 0 52.5 12t16.5 32q0 19 -16 46 l-100 170l67 39l111 -194q23 -39 23 -73q0 -48 -40.5 -76.5t-102.5 -28.5h-140zM393 73v-73h-213q-60 0 -95 28.5t-35 75.5q0 36 24 78l73 131l-46 25l7 13l118 22l42 -112l-8 -15l-47 29l-64 -116q-13 -24 -13 -43q0 -18 13.5 -30.5t45.5 -12.5h198zM624 400l-121 21l-6 12 l49 27l-71 120q-8 14 -19.5 22t-25.5 8t-27 -10t-21 -25l-99 -174l-64 37l106 185q22 38 49.5 54.5t57.5 16.5q31 0 59.5 -18t46.5 -50l73 -129l51 29l6 -14z" />
<glyph unicode="&#x2675;" horiz-adv-x="869" d="M536 0v-59h-16l-74 95l78 98l13 -2v-59h128q36 0 52.5 12t16.5 32q0 19 -16 46l-100 170l67 39l111 -194q23 -39 23 -73q0 -48 -40.5 -76.5t-102.5 -28.5h-140zM393 73v-73h-213q-60 0 -95 28.5t-35 75.5q0 36 24 78l73 131l-46 25l7 13l118 22l42 -112l-8 -15l-47 29 l-64 -116q-13 -24 -13 -43q0 -18 13.5 -30.5t45.5 -12.5h198zM624 400l-121 21l-6 12l49 27l-71 120q-8 14 -19.5 22t-25.5 8t-27 -10t-21 -25l-99 -174l-64 37l106 185q22 38 49.5 54.5t57.5 16.5q31 0 59.5 -18t46.5 -50l73 -129l51 29l6 -14zM505 214q0 -42 -24.5 -67.5 t-66.5 -25.5q-14 0 -27.5 3.5t-25 12.5t-20 24t-12.5 37l51 7q4 -19 13.5 -27t21.5 -8q18 0 28.5 12.5t10.5 30.5q0 19 -10.5 28.5t-26.5 9.5h-29v48h26q16 0 26.5 9.5t10.5 23.5t-10 24t-24 10q-11 0 -20 -9.5t-14 -26.5l-52 6q7 35 31 57.5t55 22.5q45 0 65.5 -25 t20.5 -58q0 -15 -5 -29t-22 -27q17 -14 23 -30t6 -33z" />
<glyph unicode="&#x2676;" horiz-adv-x="869" d="M536 0v-59h-16l-74 95l78 98l13 -2v-59h128q36 0 52.5 12t16.5 32q0 19 -16 46l-100 170l67 39l111 -194q23 -39 23 -73q0 -48 -40.5 -76.5t-102.5 -28.5h-140zM393 73v-73h-213q-60 0 -95 28.5t-35 75.5q0 36 24 78l73 131l-46 25l7 13l118 22l42 -112l-8 -15l-47 29 l-64 -116q-13 -24 -13 -43q0 -18 13.5 -30.5t45.5 -12.5h198zM624 400l-121 21l-6 12l49 27l-71 120q-8 14 -19.5 22t-25.5 8t-27 -10t-21 -25l-99 -174l-64 37l106 185q22 38 49.5 54.5t57.5 16.5q31 0 59.5 -18t46.5 -50l73 -129l51 29l6 -14zM477 167v-41h-51v41h-117v43 l96 206h56l-93 -200h58v70h51v-70h22v-49h-22z" />
<glyph unicode="&#x2677;" horiz-adv-x="869" d="M536 0v-59h-16l-74 95l78 98l13 -2v-59h128q36 0 52.5 12t16.5 32q0 19 -16 46l-100 170l67 39l111 -194q23 -39 23 -73q0 -48 -40.5 -76.5t-102.5 -28.5h-140zM393 73v-73h-213q-60 0 -95 28.5t-35 75.5q0 36 24 78l73 131l-46 25l7 13l118 22l42 -112l-8 -15l-47 29 l-64 -116q-13 -24 -13 -43q0 -18 13.5 -30.5t45.5 -12.5h198zM624 400l-121 21l-6 12l49 27l-71 120q-8 14 -19.5 22t-25.5 8t-27 -10t-21 -25l-99 -174l-64 37l106 185q22 38 49.5 54.5t57.5 16.5q31 0 59.5 -18t46.5 -50l73 -129l51 29l6 -14zM510 215q0 -41 -22 -69 t-67 -28q-31 0 -54.5 16t-32.5 60l51 10q8 -38 36 -38q13 0 20.5 5.5t11.5 14t5.5 18.5t1.5 19q0 19 -6.5 34.5t-28.5 15.5q-10 0 -18 -7t-15 -18h-47v162h151v-50h-102v-47q10 5 19.5 7t19.5 2q38 0 57.5 -25t19.5 -64v-18z" />
<glyph unicode="&#x2678;" horiz-adv-x="869" d="M536 0v-59h-16l-74 95l78 98l13 -2v-59h128q36 0 52.5 12t16.5 32q0 19 -16 46l-100 170l67 39l111 -194q23 -39 23 -73q0 -48 -40.5 -76.5t-102.5 -28.5h-140zM393 73v-73h-213q-60 0 -95 28.5t-35 75.5q0 36 24 78l73 131l-46 25l7 13l118 22l42 -112l-8 -15l-47 29 l-64 -116q-13 -24 -13 -43q0 -18 13.5 -30.5t45.5 -12.5h198zM624 400l-121 21l-6 12l49 27l-71 120q-8 14 -19.5 22t-25.5 8t-27 -10t-21 -25l-99 -174l-64 37l106 185q22 38 49.5 54.5t57.5 16.5q31 0 59.5 -18t46.5 -50l73 -129l51 29l6 -14zM514 211q0 -24 -7.5 -42 t-20 -29t-28.5 -16.5t-33 -5.5q-38 0 -62 22.5t-24 67.5q0 14 3.5 30t12.5 33q17 33 36.5 69t36.5 70h56l-55 -113h6q35 0 57 -25.5t22 -60.5zM460 209q0 20 -10 30t-24 10t-24.5 -10t-10.5 -30t9.5 -31t25.5 -11q14 0 24 11t10 31z" />
<glyph unicode="&#x2679;" horiz-adv-x="869" d="M536 0v-59h-16l-74 95l78 98l13 -2v-59h128q36 0 52.5 12t16.5 32q0 19 -16 46l-100 170l67 39l111 -194q23 -39 23 -73q0 -48 -40.5 -76.5t-102.5 -28.5h-140zM393 73v-73h-213q-60 0 -95 28.5t-35 75.5q0 36 24 78l73 131l-46 25l7 13l118 22l42 -112l-8 -15l-47 29 l-64 -116q-13 -24 -13 -43q0 -18 13.5 -30.5t45.5 -12.5h198zM624 400l-121 21l-6 12l49 27l-71 120q-8 14 -19.5 22t-25.5 8t-27 -10t-21 -25l-99 -174l-64 37l106 185q22 38 49.5 54.5t57.5 16.5q31 0 59.5 -18t46.5 -50l73 -129l51 29l6 -14zM412 115h-56l95 239h-61v-41 h-52v92h172v-44z" />
<glyph unicode="&#x267a;" horiz-adv-x="869" d="M536 0v-59h-16l-74 95l78 98l13 -2v-59h128q36 0 52.5 12t16.5 32q0 19 -16 46l-100 170l67 39l111 -194q23 -39 23 -73q0 -48 -40.5 -76.5t-102.5 -28.5h-140zM393 73v-73h-213q-60 0 -95 28.5t-35 75.5q0 36 24 78l73 131l-46 25l7 13l118 22l42 -112l-8 -15l-47 29 l-64 -116q-13 -24 -13 -43q0 -18 13.5 -30.5t45.5 -12.5h198zM624 400l-121 21l-6 12l49 27l-71 120q-8 14 -19.5 22t-25.5 8t-27 -10t-21 -25l-99 -174l-64 37l106 185q22 38 49.5 54.5t57.5 16.5q31 0 59.5 -18t46.5 -50l73 -129l51 29l6 -14z" />
<glyph unicode="&#x267b;" horiz-adv-x="889" d="M730 616l-82 -144h-167l52 33l-74 133q-12 21 -27.5 34.5t-29.5 21.5h181q28 0 37.5 -6t15.5 -17l46 -82zM321 695q36 0 63.5 -19t42.5 -39l-121 -220l-147 87l83 146q13 17 33 31t46 14zM738 495l86 -148q15 -25 15 -52q0 -24 -11 -44t-28 -34.5t-39 -22.5t-43 -8h-8 l-123 222zM303 290l-46 27l-72 -131q-17 -27 -25 -47.5t-8 -33.5l-88 152q-14 24 -14 39q0 8 5 23l50 86l-41 20h161zM469 80l86 137v-60h149q16 0 44 7.5t51 22.5l-100 -152q-15 -23 -32 -29t-31 -6h-81v-58zM448 0h-189q-11 0 -25.5 4.5t-27.5 14t-22 25.5t-9 40 q0 18 6.5 35.5t17.5 37.5h249v-157z" />
<glyph unicode="&#x267c;" horiz-adv-x="836" d="M786 352q0 -76 -29 -143t-79 -117t-117 -79t-143 -29t-143 29t-117 79t-79 117t-29 143t29 143t79 117t117 79t143 29t143 -29t117 -79t79 -117t29 -143zM593 538l-34 61q-5 9 -12 13t-27 4h-137q11 -5 22.5 -15t20.5 -26l55 -100l-39 -25h125l62 108zM323 617 q-20 0 -35.5 -9.5t-23.5 -24.5l-62 -109l111 -65l90 165q-12 15 -32.5 29t-47.5 14zM522 403l92 -166h6q16 0 32 6t29 16.5t21 25.5t8 33q0 9 -2 19t-9 20l-64 111zM251 415h-120l30 -14l-38 -64q-5 -8 -5 -19q0 -13 10 -30l69 -111q0 20 23 60l55 97l34 -19zM498 54v43h61 q9 0 22.5 5t24.5 22l75 113q-17 -10 -38.5 -16.5t-32.5 -6.5h-112v46l-64 -102zM418 214h-186q-18 -27 -18 -53q0 -18 6.5 -30.5t16.5 -20t20.5 -10.5t18.5 -3h142v117z" />
<glyph unicode="&#x267d;" horiz-adv-x="836" d="M786 353q0 -76 -29 -143t-79 -117t-117 -79t-143 -29t-143 29t-117 79t-79 117t-29 143t29 143t79 117t117 79t143 29t143 -29t117 -79t79 -117t29 -143zM767 353q0 72 -27.5 135.5t-74.5 111t-111 75t-136 27.5t-135.5 -27.5t-111 -75t-75 -111t-27.5 -135.5t27.5 -136 t75 -111t111 -74.5t135.5 -27.5t136 27.5t111 74.5t74.5 111t27.5 136zM631 558l-62 -108h-125l39 25l-55 100q-9 16 -20.5 26t-22.5 15h137q20 0 27 -4t12 -13l34 -61zM325 617q27 0 47.5 -14t32.5 -29l-90 -165l-111 65l62 109q8 15 23.5 24.5t35.5 9.5zM637 468l64 -111 q7 -10 9 -20t2 -19q0 -18 -8 -33t-21 -25.5t-29 -16.5t-32 -6h-6l-92 166zM311 315l-34 19l-55 -97q-23 -40 -23 -60l-69 111q-10 17 -10 30q0 11 5 19l38 64l-30 14h120zM436 158l64 102v-46h112q11 0 32.5 6.5t38.5 16.5l-75 -113q-11 -17 -24.5 -22t-22.5 -5h-61v-43z M420 97h-142q-8 0 -18.5 3t-20.5 10.5t-16.5 20t-6.5 30.5q0 26 18 53h186v-117z" />
<glyph unicode="&#x2693;" horiz-adv-x="698" d="M381 68q33 3 70 14.5t81 52.5l-40 35l142 41l-21 -152l-38 41q-54 -55 -111 -79t-115 -29q-58 5 -115 29t-110 79l-38 -41l-22 152l142 -41l-40 -35q22 -21 42 -33.5t39 -19.5t36.5 -10t34.5 -4v397h-128v48h128v12q-27 8 -44 32t-17 53q0 38 26.5 64t63.5 26q18 0 34 -7 t28 -19t19 -28.5t7 -35.5q0 -29 -15.5 -50.5t-40.5 -31.5v-15h130v-48h-130v-397h2z" />
<glyph unicode="&#x26a0;" horiz-adv-x="884" d="M437 525q24 0 36 -13.5t12 -32.5l-29 -281q-2 -8 -8.5 -13t-11.5 -5q-6 0 -12.5 5t-7.5 13l-23 281q0 16 12 31t32 15zM437 75q-6 0 -14 2t-14.5 6.5t-11.5 13t-5 21.5q0 4 2 11t7.5 14t14 11.5t21.5 4.5q17 0 29.5 -11.5t12.5 -31.5q0 -19 -12.5 -30t-29.5 -11zM391 669 q11 19 24 27.5t27 8.5q13 0 25.5 -8.5t22.5 -25.5l331 -588q10 -17 10 -37t-12.5 -33t-40.5 -13h-675q-29 0 -41.5 13.5t-12.5 32.5q0 18 11 37zM125 90q-5 -8 -8.5 -14t-3.5 -11t6 -7t23 -2h597q17 0 23 2t6 7t-4 11.5t-9 14.5l-297 526q-9 17 -19 17q-5 0 -10 -5t-9 -12z " />
<glyph unicode="&#x2706;" horiz-adv-x="432" d="M268 501q-26 0 -36 -38t-10 -125q0 -12 2 -36t7 -48.5t14 -43.5t23 -21v-201q-9 0 -24 6t-33 21t-37 41t-34.5 66t-25 95.5t-9.5 130.5q0 113 20.5 183t48 109t54.5 53.5t40 15.5v-208zM281 -12v201h60q8 0 14 -4.5t6 -15.5v-160q0 -8 -4.5 -14.5t-15.5 -6.5h-60z M281 501v208h60q8 0 14 -6t6 -14v-163q0 -25 -20 -25h-60z" />
<glyph unicode="&#x2708;" horiz-adv-x="890" d="M566 246l-208 -351h-96l115 351h-191l-61 -80h-75l38 127l-41 126h75l64 -84h192l-112 359h95l207 -359h247q25 0 38 -14.5t13 -31.5q0 -16 -12.5 -29.5t-37.5 -13.5h-250z" />
<glyph unicode="&#x2709;" horiz-adv-x="1070" d="M353 330l-229 228v-454zM712 337l227 -227v456zM169 64h726l-222 224l-143 -144l-137 136zM162 610l368 -371l366 371h-734zM1005 671v-671h-941v671h941z" />
<glyph unicode="&#x2713;" horiz-adv-x="764" d="M756 656q-35 -27 -75.5 -72.5t-82 -102.5t-82.5 -121.5t-78 -127t-67.5 -120t-50.5 -100.5q-36 -8 -62 -16t-39 -16q-7 29 -17.5 66.5t-23.5 77.5t-28 79t-30 71.5t-29.5 54t-26.5 27.5q23 20 52 28.5t49 8.5q13 0 31 -23.5t35.5 -61t31.5 -83.5t19 -91q37 65 91 142.5 t115.5 152.5t126.5 139.5t126 104.5z" />
<glyph unicode="&#x2716;" horiz-adv-x="742" d="M717 172l-173 -174l-173 175l-173 -175l-173 174l175 172l-175 172l173 174l173 -174l173 174l173 -174l-174 -172z" />
<glyph unicode="&#x271a;" horiz-adv-x="748" d="M264 666h230v-218h218v-230h-213v-218h-231v218h-217v230h213v218z" />
<glyph unicode="&#x272a;" horiz-adv-x="796" d="M752 346q0 -74 -28 -138.5t-76 -112.5t-112.5 -75.5t-138.5 -27.5t-138.5 27.5t-112.5 75.5t-76 112.5t-28 138.5q0 73 28 138t76 113t112.5 76t138.5 28t138.5 -28t112.5 -76t76 -113t28 -138zM484 468l-96 177l-91 -179l-196 -39l141 -140l-24 -199l170 92l189 -92 l-32 204l137 135z" />
<glyph unicode="&#x2794;" horiz-adv-x="710" d="M361 82l243 244h-574v43h574l-240 239h69l255 -262l-259 -264h-68z" />
<glyph unicode="&#xe000;" horiz-adv-x="380" d="M268 588q0 42 -27.5 66.5t-70.5 24.5q-44 0 -71 -24.5t-27 -66.5v-480q0 -42 27 -66.5t71 -24.5q43 0 70.5 24.5t27.5 66.5v480zM170 -7q-25 0 -47 7t-39 21t-27 35.5t-10 51.5v480q0 29 10 50.5t27 35.5t39 21t47 7t47 -7t39 -21t27 -35.5t10 -50.5v-480 q0 -30 -10 -51.5t-27 -35.5t-39 -21t-47 -7z" />
<glyph unicode="&#xe001;" horiz-adv-x="282" d="M138 667l-110 -74v30l108 73h27v-695h-25v666z" />
<glyph unicode="&#xe002;" horiz-adv-x="380" d="M72 24h221v-24h-246v26l197 398q17 35 23 66t6 69q0 23 -4.5 45t-15.5 38.5t-30.5 26.5t-50.5 10q-18 0 -35.5 -5.5t-32 -18.5t-23.5 -34.5t-9 -53.5l-24 4q1 35 11 60t26.5 40.5t39 23t48.5 7.5q67 0 96.5 -39.5t29.5 -103.5q0 -50 -9 -83.5t-27 -69.5z" />
<glyph unicode="&#xe003;" horiz-adv-x="380" d="M172 702q34 0 57.5 -8.5t38 -25t21 -40t5.5 -52.5v-70q0 -18 -1.5 -40t-8 -42t-20 -35.5t-37.5 -22.5q22 -7 35.5 -21t20.5 -32.5t9 -40t2 -43.5v-109q0 -56 -28.5 -91.5t-96.5 -35.5q-23 0 -44.5 6.5t-38.5 22t-27.5 41t-10.5 63.5l25 5q0 -52 22 -83t75 -31 q44 0 71.5 24t27.5 79v122q0 31 -7.5 52t-19.5 34t-28 18.5t-33 5.5h-25v27h27q17 0 32.5 5.5t27.5 17.5t19 32t7 49v103q0 43 -24 68t-75 25q-52 0 -74.5 -32t-22.5 -79l-25 5q0 60 31 94.5t93 34.5z" />
<glyph unicode="&#xe004;" horiz-adv-x="380" d="M258 1h-25v126h-205v23l144 546h25l-146 -546h182v196h25v-196h60v-23h-60v-126z" />
<glyph unicode="&#xe005;" horiz-adv-x="380" d="M273 318q0 54 -28.5 77t-70.5 23q-29 0 -54.5 -12t-34.5 -32h-25v322h233v-21h-210v-268h2q15 16 39.5 25t55.5 9q53 0 85.5 -29t32.5 -83v-209q0 -56 -28.5 -91.5t-96.5 -35.5q-23 0 -44.5 6.5t-38.5 22t-27.5 41t-10.5 63.5l25 5q0 -52 22 -83t75 -31q44 0 71.5 24 t27.5 79v198z" />
<glyph unicode="&#xe006;" horiz-adv-x="380" d="M47 245q0 27 4 47t11 38l138 366h25l-128 -339h3q11 12 32 21t41 9q24 0 46 -7t38.5 -21t26 -35.5t9.5 -50.5v-164q0 -30 -10 -51.5t-27 -35.5t-39 -21t-47 -7t-47 7t-39 21t-27 35.5t-10 51.5v136zM268 272q0 42 -27.5 66.5t-70.5 24.5q-23 0 -41.5 -9t-31 -24.5 t-19 -35t-6.5 -40.5v-146q0 -42 27 -66.5t71 -24.5q43 0 70.5 24.5t27.5 66.5v164z" />
<glyph unicode="&#xe007;" horiz-adv-x="351" d="M55 675v-88h-22v109h258v-21l-192 -675h-25l192 675h-211z" />
<glyph unicode="&#xe008;" horiz-adv-x="380" d="M170 -7q-25 0 -47 7t-39 21t-27 35.5t-10 51.5v149q0 39 17.5 64.5t45.5 37.5q-28 12 -45.5 37.5t-17.5 66.5v125q0 29 10 50.5t27 35.5t39 21t47 7t47 -7t39 -21t27 -35.5t10 -50.5v-125q0 -41 -17.5 -66t-45.5 -38q28 -12 45.5 -37.5t17.5 -64.5v-149q0 -30 -10 -51.5 t-27 -35.5t-39 -21t-47 -7zM268 257q0 41 -26.5 65t-71.5 26q-44 0 -71 -24.5t-27 -66.5v-149q0 -42 27 -66.5t71 -24.5q43 0 70.5 24.5t27.5 66.5v149zM268 588q0 42 -27.5 66.5t-70.5 24.5q-44 0 -71 -24.5t-27 -66.5v-125q0 -42 27 -66.5t71 -24.5q43 0 70.5 24.5 t27.5 66.5v125z" />
<glyph unicode="&#xe009;" horiz-adv-x="380" d="M293 451q0 -27 -4 -47t-11 -38l-138 -366h-25l128 339h-3q-11 -12 -32 -21t-41 -9q-24 0 -46 7t-38.5 21t-26 35.5t-9.5 50.5v164q0 30 10 51.5t27 35.5t39 21t47 7t47 -7t39 -21t27 -35.5t10 -51.5v-136zM72 424q0 -42 27.5 -66.5t70.5 -24.5q23 0 41.5 9t31 24.5t19 35 t6.5 40.5v146q0 42 -27 66.5t-71 24.5q-43 0 -70.5 -24.5t-27.5 -66.5v-164z" />
<glyph unicode="&#xe00a;" horiz-adv-x="380" d="M1 241h60l41 216h-51v20h55l43 225h23l-43 -225h130l43 225h23l-43 -225h57v-20h-61l-41 -216h48v-19h-52l-42 -222h-22l42 222h-131l-42 -222h-22l42 222h-57v19zM84 241h130l41 216h-130z" />
<glyph unicode="&#xe00b;" horiz-adv-x="380" d="M322 178q0 -41 -7 -74t-23 -57t-43.5 -38t-67.5 -16v-102h-22v102q-39 1 -66 12.5t-44 31t-25 45t-9 55.5l27 5q0 -24 6.5 -46t20.5 -39t36 -28t54 -12v343q-47 22 -74 41.5t-41.5 39.5t-18.5 42t-4 49q0 36 8 66t24.5 52.5t42.5 35.5t63 15v95h22v-94q41 -2 68.5 -15 t43.5 -32.5t22.5 -44t6.5 -48.5l-26 -6q0 23 -6 44.5t-19.5 38t-35.5 27t-54 12.5v-300l14 -6q46 -20 71.5 -39t38 -41.5t15 -50t2.5 -63.5zM295 177q0 36 -3 60.5t-15 43.5t-34.5 35t-61.5 34v-333q37 2 59.5 16t34.5 35.5t16 49.5t4 59zM48 533q0 -24 4.5 -43.5t16.5 -36 t33.5 -32t56.5 -32.5v288q-35 -2 -56.5 -16.5t-33.5 -35t-16.5 -45t-4.5 -47.5z" />
<glyph unicode="&#xe00c;" horiz-adv-x="380" d="M15 321h38v77h-38v21h38v145q0 37 12 63.5t31.5 43t44 24t50.5 7.5q25 0 48.5 -6.5t42.5 -20.5t32 -36t16 -53l-24 -6q-3 25 -13 44t-26 31t-35.5 18t-40.5 6q-48 0 -81 -28t-33 -88v-144h187v-21h-187v-77h187v-21h-187v-171q0 -30 9.5 -51.5t25 -35t36 -20t43.5 -6.5 q21 0 41 5.5t35.5 17.5t25.5 30.5t13 44.5l26 -5q-3 -32 -16.5 -54t-33 -36t-43.5 -20t-48 -6q-26 0 -50.5 7.5t-44 23.5t-31.5 42t-12 64v170h-38v21z" />
<glyph unicode="&#xe00d;" horiz-adv-x="380" d="M-13 -68q13 -3 29 -3q22 0 40 7t32 25t23.5 47.5t15.5 74.5l36 295h-81v23h83l17 146q10 79 40 117t90 38q17 0 40 -5l-7 -23q-18 5 -33 5q-17 0 -33.5 -5t-30.5 -20t-25 -41.5t-16 -69.5l-16 -142h97v-23h-100l-34 -292q-12 -95 -45 -138t-93 -43q-18 0 -36 3z" />
<glyph unicode="&#xe00e;" horiz-adv-x="364" d="M182 703q28 0 53.5 -7.5t45 -25t31 -45t11.5 -66.5l-25 -6q0 68 -33 97.5t-83 29.5q-54 0 -83 -31t-29 -82q0 -27 5 -52t12 -50t14.5 -51.5t12.5 -56.5h113v-23h-110q3 -23 3 -46q0 -83 -16 -144t-45 -120h253v-24h-282v24q32 58 48.5 127t16.5 141q0 10 -1 20.5t-3 21.5 h-65v23h62q-6 28 -13.5 57.5t-14.5 57t-12 51.5t-5 41q0 63 36.5 101t102.5 38z" />
<glyph unicode="&#xe00f;" horiz-adv-x="327" d="M177 495q54 -2 87.5 -32t33.5 -89l-26 -5q0 46 -24 73t-71 29v-455q43 2 68 26.5t27 75.5l26 -5q-2 -59 -35 -88.5t-86 -31.5v-107h-19v107q-54 3 -80 28t-34 56q-3 12 -5 31.5t-3 41.5t-1 45v43q0 27 0.5 54.5t2 52t4 44t6.5 31.5q11 31 37.5 51t72.5 23v115h19v-114z M72 78q9 -28 30.5 -44t55.5 -18v455q-26 -2 -48.5 -15t-35.5 -43q-8 -19 -9.5 -67t-2.5 -109v-18q0 -18 0.5 -39t1.5 -40.5t3 -36t5 -25.5z" />
<glyph unicode="&#xe010;" horiz-adv-x="500" d="M153 306l-131 390h25l122 -369h2l121 369h27l-132 -390h120v-21h-124v-79h124v-21h-124v-185h-25v185h-115v21h115v79h-115v21h110z" />
<glyph unicode="&#xe024;" horiz-adv-x="340" d="M268 381q0 42 -27.5 66.5t-70.5 24.5q-44 0 -71 -24.5t-27 -66.5v-273q0 -42 27 -66.5t71 -24.5q43 0 70.5 24.5t27.5 66.5v273zM170 -7q-25 0 -47 7t-39 21t-27 35.5t-10 51.5v273q0 29 10 50.5t27 35.5t39 21t47 7t47 -7t39 -21t27 -35.5t10 -50.5v-273 q0 -30 -10 -51.5t-27 -35.5t-39 -21t-47 -7z" />
<glyph unicode="&#xe025;" horiz-adv-x="340" d="M31 24h128v434l-110 -74v30l108 73h27v-463h124v-24h-277v24z" />
</font>
</defs>
</svg>
